Loading...
Error

Скачать Электрические сны Филипа К. Дика / Philip K. Dick's Electric Dream (Сезон 01, серии 01-04 из 10) (Майкл Диннер, Дэвид Фарр, Франческа Грегорини, Том Харпер, Питер Хортон) [2017, драма, фантастика, WEB-DLRip] [MVO] (NewStudio) торрент без регистрации

Статистика раздачи
Размер:  2,35 GB   |    Скачан:  57 раз
Сидов:  1  [  0 KB/s  ]  

 
 
 
Автор Сообщение

leon030982

[] 

Электрические сны Филипа К. Дика / Philip K. Dick's Electric Dream



Год выпуска: 2017
Страна: США, Великобритания, Channel 4, Sony Pictures Television
Жанр: драма, фантастика
Продолжительность: 1х ~ 00:53:05
Перевод: Профессиональный (многоголосый) *NewStudio*

Режиссёры: Майкл Диннер, Дэвид Фарр, Франческа Грегорини, Том Харпер, Питер Хортон

В ролях: Брайан Крэнстон, Стив Бушеми, Вера Фармига, Мирей Инос, Грег Киннир, Тимоти Сполл, Бенедикт Вонг, Холлидей Грейнджер, Ричард Мэдден, Лара Пулвер

Описание: Сериал-антология. Сборник экранизаций научно-фантастических рассказов знаменитого писателя Филипа К. Дика.




Качество: WEB-DLRip
Формат: AVI
Видео: XvID, 720x400, 23,976 fps, ~1517 Kbps
Аудио: MP3, 48.0 kHz, 2 channels, 128 kb/s - MVO
Аудио: MP3, 48.0 kHz, 2 channels, 128 kb/s - ENG
Субтитры: нет

Торент обновлен! добавлена 4-я серия
Внимание! Раздача ведётся путём добавления новых серий - по мере выхода серий, раздача будет обновляться, и при каждом добавлении создаваться новый торрент.
Чтобы начать докачку новой серии, пользователям необходимо:
1. Остановить скачивание.
2. Удалить старый торрент у себя из клиента (старые серии удалять не надо).
3. Скачать новый торрент и запустить его у себя в клиенте вместо старого, при этом указать клиенту путь в старую папку куда и должно происходить скачивание новых серий.

Ваш клиент при этом должен произвести хеширование (проверку) старой папки (если не производит сам - помогите ему сделать это), и будет докачивать только те серии которых у вас ещё нет. Старые серии при этом не удаляются, а продолжают раздаваться. Eсли вы уже удалили старые серии, то предотвратить повторную закачку старых серий можно отжав галочку в соответствующих местах при запуске нового торрента. По возможности, желательно не удалять старые серии как можно дольше, чтобы релизер не столько продолжал раздавать старые серии, сколько мог сконцентрироваться на новых.
General
Complete name : E:\Philip.K.Dicks.Electric.Dreams.s01e01.WEBDLRip.NewStudio.TV.avi
Format : AVI
Format/Info : Audio Video Interleave
File size : 700 MiB
Duration : 52mn 39s
Overall bit rate : 1 858 Kbps
Writing application : VirtualDubMod 1.5.10.2 (build 2540/release)
Writing library : VirtualDubMod build 2540/release

Video
ID : 0
Format : MPEG-4 Visual
Format profile : Advanced Simple@L5
Format settings, BVOP : 2
Format settings, QPel : Yes
Format settings, GMC : No warppoints
Format settings, Matrix : Default (MPEG)
Muxing mode : Packed bitstream
Codec ID : XVID
Codec ID/Hint : XviD
Duration : 52mn 39s
Bit rate : 1 517 Kbps
Width : 720 pixels
Height : 400 pixels
Display aspect ratio : 16:9
Frame rate : 23.976 fps
Color space : YUV
Chroma subsampling : 4:2:0
Bit depth : 8 bits
Scan type : Progressive
Compression mode : Lossy
Bits/(Pixel*Frame) : 0.220
Stream size : 572 MiB (82%)
Writing library : XviD 73

Audio #1
ID : 1
Format : MPEG Audio
Format version : Version 1
Format profile : Layer 3
Mode : Joint stereo
Mode extension : MS Stereo
Codec ID : 55
Codec ID/Hint : MP3
Duration : 52mn 39s
Bit rate mode : Constant
Bit rate : 128 Kbps
Channel(s) : 2 channels
Sampling rate : 48.0 KHz
Compression mode : Lossy
Stream size : 48.2 MiB (7%)
Alignment : Aligned on interleaves

Audio #2
ID : 2
Format : MPEG Audio
Format version : Version 1
Format profile : Layer 3
Mode : Joint stereo
Codec ID : 55
Codec ID/Hint : MP3
Duration : 52mn 39s
Bit rate mode : Constant
Bit rate : 128 Kbps
Channel(s) : 2 channels
Sampling rate : 48.0 KHz
Compression mode : Lossy
Stream size : 48.2 MiB (7%)
Alignment : Aligned on interleaves
Writing library : LAME3.99r
Encoding settings : -m j -V 4 -q 2 -lowpass 17 -b 128




Скачать Электрические.сны.Филипа.К.Дика.Philip.K.Dick's.Electric.Dream.(Сезон.01.серии.01-04.из.10).(Майкл.Диннер.Дэвид.Фарр.Франческа.Грегорини.Том.Харпер.Питер.Хортон).[2017.драма.фантастика.WEB-DLRip].[MVO].(NewStudio).torrent без регистрации
Золото ЗОЛОТАЯ РАЗДАЧА! СКАЧАННОЕ НЕ ЗАСЧИТЫВАЕТСЯ! Золото
Дата: Зарегистрирован   [ Тип: внутренний ] Как тут cкачать?
MAGNET ссылка
MAGNET ссылка


Скачать .torrent

13 KB

Статус: проверено DHT
Скачан: торрент - 57 раз, раздача полностью - 4 раз
Размер: 2,35 GB
Оценка:  - (Голосов: 0)
Поблагодарили: 3
Поделиться ссылкой на эту раздачу с друзьями:
В контактеFacebookОдноклассникиTwitterLivejournalМой МирLiveinternet
 

 
Показать сообщения:    


Вы не можете начинать темы
Вы не можете отвечать на сообщения
Вы не можете редактировать свои сообщения
Вы не можете удалять свои сообщения
Вы не можете голосовать в опросах
Вы не можете прикреплять файлы к сообщениям
Вы можете скачивать файлы