Loading...
Error

Скачать Грань / Fringe (Сезон 01-05, серии 01-100 из 100) (Джей Джей Абрамс) [2008-2013, Драма, Ужасы, Детектив, Фантастика, Триллер, BDRip] [720p] [DUB] + 2x[MVO] (LostFilm, NovaFilm) торрент без регистрации

Статистика раздачи
Размер:  206,89 GB   |    Скачан:  10 раз
Сидов:  1  [  0 KB/s  ]  

 
 
 
Автор Сообщение

leon030982

[] 

Грань / Fringe (Сезон 01-05, серии 01-100 из 100)

«Imagine the Impossibilities»



Год выхода: 2008-2013
Жанр: Фантастика, триллер, драма, детектив
Страна: США, Канада
Продолжительность: ~00:44:00
Перевод: Дубляж *ТВ3*
Перевод: Профессиональный многоголосый, закадровый (LostFilm)
Перевод: Профессиональный многоголосый, закадровый (NovaFilm) *1-4 сезон*
Перевод: Профессиональный многоголосый, закадровый (UATeam) *4-5 сезон*
Субтитры: Русские, английские

Режиссер: Джо Чаппелль, Дэвид Стрейтон, Том Яцко
В ролях: Анна Торв, Джошуа Джексон, Джон Нобл, Ленс Реддик, Кирк Эйсвидо, Блэр Браун и др.

О фильме:
Агент ФБР Оливия Данэм расследует гибель всех пассажиров авиарейса следующего из Гамбурга в Бостон.
В ходе расследования ранен её напарник Джон Скотт. В отчаянии Оливия понимает, что ей может помочь доктор Уолтер Бишоп, который находится в психиатрической лечебнице. Поговорить с ним можно только при участии его сына Питера.Оливия продолжает расследование и знакомится с Ниной Шарп, влиятельным руководителем.
Вместе Оливия, Питер и доктор Бишоп начнут раскрывать тайны случившегося с рейсом 627 и сделают первый шаг на пути к осознанию истины, которая находится за гранью нашего понимания.



Качество: BDRip [720p]
Формат: MKV
Видео: MPEG-4 AVC, ~ 5000 Кбит/с, 1280x720, 23,976 fps


Сезон 01:

Качество: BDRip [720p]
Видео: MPEG-4 AVC, ~ 5000 Кбит/с, 1280x720, 23,976 fps
Аудио Rus: АС3, 6 ch, 384 Кбит/с (DUB)
Аудио Rus: АС3, 6 ch, 384 Кбит/с (LostFilm)
Аудио Rus: АС3, 6 ch, 448 Кбит/с (NovaFilm)
Аудио Eng: АС3, 6 ch, 640 Кбит/с (Original)

Сезон 02:

Качество: BDRip [720p]
Видео: MPEG-4 AVC, ~ 5000 Кбит/с, 1280x720, 23,976 fps
Аудио Rus: АС3, 2 ch, 384 Кбит/с (DUB)
Аудио Rus: АС3, 6 ch, 384 Кбит/с (LostFilm)
Аудио Rus: АС3, 6 ch, 448 Кбит/с (NovaFilm)
Аудио Eng: АС3, 6 ch, 640 Кбит/с (Original)

Сезон 03:

Качество: BDRip [720p]
Видео: MPEG-4 AVC, ~ 5000 Кбит/с, 1280x720, 23,976 fps
Аудио Rus: АС3, 2 ch, 384 Кбит/с (DUB)
Аудио Rus: АС3, 6 ch, 384 Кбит/с (LostFilm)
Аудио Rus: АС3, 6 ch, 448 Кбит/с (NovaFilm)
Аудио Eng: АС3, 6 ch, 640 Кбит/с (Original)

Сезон 04:
Качество: BDRip [720p]
Видео: 1280x720 at 23,976 fps, x264@L4.1, 2pass, ~4800-8400 kbps avg
Аудио#1: Russian: 48 kHz, AC3, 2/0 (L,R) ch, ~192 kbps avg |Дубляж, ТВ3|
Аудио#2: Russian: 48 kHz, DTS, 3/2 (L,C,R,l,r) + LFE ch, ~1536 kbps avg |Многоголосый закадровый, LostFilm|
Аудио#3: Russian: 48 kHz, DTS, 3/2 (L,C,R,l,r) + LFE ch, ~1536 kbps avg |Многоголосый закадровый, NovaFilm|
Аудио#4: Ukrainian: 48 kHz, AC3, 3/2 (L,C,R,l,r) + LFE ch, ~384 kbps avg |Многоголосый закадровый, UATeam|
Аудио#5: English: 48 kHz, AC3, 3/2 (L,C,R,l,r) + LFE ch, ~640 kbps avg


Сезон 05:
Качество: BDRip [720p]
Видео: 1280x720 at 23,976 fps, x264@L4.1, 2pass, ~5800-8200 kbps avg
Аудио#1: Russian: 48 kHz, AC3, 2/0 (L,R) ch, ~192 kbps avg |Дубляж, ТВ3|
Аудио#2: Russian: 48 kHz, DTS, 3/2 (L,C,R,l,r) + LFE ch, ~1536 kbps avg |Многоголосый закадровый, LostFilm|
Аудио#3: Ukrainian: 48 kHz, AC3, 3/2 (L,C,R,l,r) + LFE ch, ~384 kbps avg |Многоголосый закадровый, UATeam|
Аудио#4: English: 48 kHz, AC3, 3/2 (L,C,R,l,r) + LFE ch, ~640 kbps avg
Субтитры: English
Сериалы (Буржуйские)\Фантастика\За Гранью (Грань) - Fringe (2008-2013) 720p\Fringe.S01.2008\Fringe.S01.E06.2008.QUADRO.BDRip.720p.h264.AC3.mkv
General
Unique ID : 186836053215169091325795091013304416241 (0x8C8F50A11369A50D8E368E4769F177F1)
Complete name : \\Sosyn\t\Сериалы (Буржуйские)\Фантастика\За Гранью (Грань) - Fringe (2008-2013) 720p\Fringe.S01.2008\Fringe.S01.E06.2008.QUADRO.BDRip.720p.h264.AC3.mkv
Format : Matroska
Format version : Version 2
File size : 1.84 GiB
Duration : 50mn 12s
Overall bit rate : 5 259 Kbps
Encoded date : UTC 2012-02-02 05:54:32
Writing application : mkvmerge v5.0.1 ('Es ist Sommer') built on Oct 9 2011 11:55:43
Writing library : libebml v1.2.2 + libmatroska v1.3.0
Video #1
ID : 1
Format : AVC
Format/Info : Advanced Video Codec
Format profile : High@L4.1
Format settings, CABAC : Yes
Format settings, ReFrames : 8 frames
Codec ID : V_MPEG4/ISO/AVC
Duration : 50mn 12s
Bit rate : 3 299 Kbps
Width : 1 280 pixels
Height : 720 pixels
Display aspect ratio : 16:9
Frame rate mode : Constant
Frame rate : 23.976 fps
Color space : YUV
Chroma subsampling : 4:2:0
Bit depth : 8 bits
Scan type : Progressive
Bits/(Pixel*Frame) : 0.149
Stream size : 1.16 GiB (63%)
Default : Yes
Forced : No
Audio #2
ID : 2
Format : AC-3
Format/Info : Audio Coding 3
Mode extension : CM (complete main)
Format settings, Endianness : Big
Codec ID : A_AC3
Duration : 50mn 12s
Bit rate mode : Constant
Bit rate : 448 Kbps
Channel(s) : 6 channels
Channel positions : Front: L C R, Side: L R, LFE
Sampling rate : 48.0 KHz
Bit depth : 16 bits
Compression mode : Lossy
Stream size : 161 MiB (9%)
Title : дубляж ТВ3
Language : Russian
Default : Yes
Forced : No
Audio #3
ID : 3
Format : AC-3
Format/Info : Audio Coding 3
Mode extension : CM (complete main)
Format settings, Endianness : Big
Codec ID : A_AC3
Duration : 50mn 12s
Bit rate mode : Constant
Bit rate : 384 Kbps
Channel(s) : 6 channels
Channel positions : Front: L C R, Side: L R, LFE
Sampling rate : 48.0 KHz
Bit depth : 16 bits
Compression mode : Lossy
Stream size : 138 MiB (7%)
Title : Lost
Language : Russian
Default : No
Forced : No
Audio #4
ID : 4
Format : AC-3
Format/Info : Audio Coding 3
Mode extension : CM (complete main)
Format settings, Endianness : Big
Codec ID : A_AC3
Duration : 50mn 12s
Bit rate mode : Constant
Bit rate : 384 Kbps
Channel(s) : 6 channels
Channel positions : Front: L C R, Side: L R, LFE
Sampling rate : 48.0 KHz
Bit depth : 16 bits
Compression mode : Lossy
Stream size : 138 MiB (7%)
Title : Nova
Language : Russian
Default : No
Forced : No
Audio #5
ID : 5
Format : AC-3
Format/Info : Audio Coding 3
Mode extension : CM (complete main)
Format settings, Endianness : Big
Codec ID : A_AC3
Duration : 50mn 12s
Bit rate mode : Constant
Bit rate : 640 Kbps
Channel(s) : 6 channels
Channel positions : Front: L C R, Side: L R, LFE
Sampling rate : 48.0 KHz
Bit depth : 16 bits
Compression mode : Lossy
Stream size : 230 MiB (12%)
Title : оригинал
Language : English
Default : No
Forced : No
Text #6
ID : 6
Format : UTF-8
Codec ID : S_TEXT/UTF8
Codec ID/Info : UTF-8 Plain Text
Language : Russian
Default : Yes
Forced : No
Text #7
ID : 7
Format : UTF-8
Codec ID : S_TEXT/UTF8
Codec ID/Info : UTF-8 Plain Text
Language : English
Default : No
Forced : No
\\Sosyn\t\Сериалы (Буржуйские)\Фантастика\За Гранью (Грань) - Fringe (2008-2013) 720p\Fringe.S01.2008\Fringe.S01.E14.2008.QUADRO.BDRip.720p.h264.AC3.mkv
General
Unique ID : 215385189700476165504139569112606881551 (0xA209ADBB7E39F122A5986265588CB70F)
Complete name : \\Sosyn\t\Сериалы (Буржуйские)\Фантастика\За Гранью (Грань) - Fringe (2008-2013) 720p\Fringe.S01.2008\Fringe.S01.E14.2008.QUADRO.BDRip.720p.h264.AC3.mkv
Format : Matroska
Format version : Version 2
File size : 1.84 GiB
Duration : 50mn 13s
Overall bit rate : 5 259 Kbps
Encoded date : UTC 2012-02-07 05:29:59
Writing application : mkvmerge v5.0.1 ('Es ist Sommer') built on Oct 9 2011 11:55:43
Writing library : libebml v1.2.2 + libmatroska v1.3.0
Video #1
ID : 1
Format : AVC
Format/Info : Advanced Video Codec
Format profile : High@L4.1
Format settings, CABAC : Yes
Format settings, ReFrames : 8 frames
Codec ID : V_MPEG4/ISO/AVC
Duration : 50mn 13s
Bit rate : 3 298 Kbps
Width : 1 280 pixels
Height : 720 pixels
Display aspect ratio : 16:9
Frame rate mode : Constant
Frame rate : 23.976 fps
Color space : YUV
Chroma subsampling : 4:2:0
Bit depth : 8 bits
Scan type : Progressive
Bits/(Pixel*Frame) : 0.149
Stream size : 1.16 GiB (63%)
Default : Yes
Forced : No
Audio #2
ID : 2
Format : AC-3
Format/Info : Audio Coding 3
Mode extension : CM (complete main)
Format settings, Endianness : Big
Codec ID : A_AC3
Duration : 50mn 13s
Bit rate mode : Constant
Bit rate : 448 Kbps
Channel(s) : 6 channels
Channel positions : Front: L C R, Side: L R, LFE
Sampling rate : 48.0 KHz
Bit depth : 16 bits
Compression mode : Lossy
Stream size : 161 MiB (9%)
Title : дубляж ТВ3
Language : Russian
Default : Yes
Forced : No
Audio #3
ID : 3
Format : AC-3
Format/Info : Audio Coding 3
Mode extension : CM (complete main)
Format settings, Endianness : Big
Codec ID : A_AC3
Duration : 50mn 13s
Bit rate mode : Constant
Bit rate : 384 Kbps
Channel(s) : 6 channels
Channel positions : Front: L C R, Side: L R, LFE
Sampling rate : 48.0 KHz
Bit depth : 16 bits
Compression mode : Lossy
Stream size : 138 MiB (7%)
Title : Lost
Language : Russian
Default : No
Forced : No
Audio #4
ID : 4
Format : AC-3
Format/Info : Audio Coding 3
Mode extension : CM (complete main)
Format settings, Endianness : Big
Codec ID : A_AC3
Duration : 50mn 13s
Bit rate mode : Constant
Bit rate : 384 Kbps
Channel(s) : 6 channels
Channel positions : Front: L C R, Side: L R, LFE
Sampling rate : 48.0 KHz
Bit depth : 16 bits
Compression mode : Lossy
Stream size : 138 MiB (7%)
Title : Nova
Language : Russian
Default : No
Forced : No
Audio #5
ID : 5
Format : AC-3
Format/Info : Audio Coding 3
Mode extension : CM (complete main)
Format settings, Endianness : Big
Codec ID : A_AC3
Duration : 50mn 13s
Bit rate mode : Constant
Bit rate : 640 Kbps
Channel(s) : 6 channels
Channel positions : Front: L C R, Side: L R, LFE
Sampling rate : 48.0 KHz
Bit depth : 16 bits
Compression mode : Lossy
Stream size : 230 MiB (12%)
Title : оригинал
Language : English
Default : No
Forced : No
Text #6
ID : 6
Format : UTF-8
Codec ID : S_TEXT/UTF8
Codec ID/Info : UTF-8 Plain Text
Language : Russian
Default : Yes
Forced : No
Text #7
ID : 7
Format : UTF-8
Codec ID : S_TEXT/UTF8
Codec ID/Info : UTF-8 Plain Text
Language : English
Default : No
Forced : No
\\Sosyn\t\Сериалы (Буржуйские)\Фантастика\За Гранью (Грань) - Fringe (2008-2013) 720p\Fringe.S03.2010\Fringe.S03.E05.2010.QUADRO.BDRip.720p.h264.AC3.mkv
General
Unique ID : 175417401218270850430355946436518369270 (0x83F8299EAA3D8152B87F79CBE2F657F6)
Complete name : \\Sosyn\t\Сериалы (Буржуйские)\Фантастика\За Гранью (Грань) - Fringe (2008-2013) 720p\Fringe.S03.2010\Fringe.S03.E05.2010.QUADRO.BDRip.720p.h264.AC3.mkv
Format : Matroska
Format version : Version 2
File size : 1.56 GiB
Duration : 43mn 59s
Overall bit rate : 5 065 Kbps
Encoded date : UTC 2012-03-03 07:11:50
Writing application : mkvmerge v3.4.0 ('Rapunzel') сборка от May 15 2010 09:38:20
Writing library : libebml v0.8.0 + libmatroska v0.9.0
Video #1
ID : 1
Format : AVC
Format/Info : Advanced Video Codec
Format profile : High@L4.1
Format settings, CABAC : Yes
Format settings, ReFrames : 8 frames
Codec ID : V_MPEG4/ISO/AVC
Duration : 43mn 59s
Bit rate : 3 300 Kbps
Width : 1 280 pixels
Height : 720 pixels
Display aspect ratio : 16:9
Frame rate mode : Constant
Frame rate : 23.976 fps
Color space : YUV
Chroma subsampling : 4:2:0
Bit depth : 8 bits
Scan type : Progressive
Bits/(Pixel*Frame) : 0.149
Stream size : 1.01 GiB (65%)
Default : No
Forced : No
Audio #2
ID : 2
Format : AC-3
Format/Info : Audio Coding 3
Mode extension : CM (complete main)
Format settings, Endianness : Big
Codec ID : A_AC3
Duration : 43mn 59s
Bit rate mode : Constant
Bit rate : 192 Kbps
Channel(s) : 2 channels
Channel positions : Front: L R
Sampling rate : 48.0 KHz
Bit depth : 16 bits
Compression mode : Lossy
Stream size : 60.4 MiB (4%)
Title : Dub TV3
Language : Russian
Default : Yes
Forced : No
Audio #3
ID : 3
Format : AC-3
Format/Info : Audio Coding 3
Mode extension : CM (complete main)
Format settings, Endianness : Big
Codec ID : A_AC3
Duration : 43mn 59s
Bit rate mode : Constant
Bit rate : 448 Kbps
Channel(s) : 6 channels
Channel positions : Front: L C R, Side: L R, LFE
Sampling rate : 48.0 KHz
Bit depth : 16 bits
Compression mode : Lossy
Stream size : 141 MiB (9%)
Title : MVO Lostfilm
Language : Russian
Default : No
Forced : No
Audio #4
ID : 4
Format : AC-3
Format/Info : Audio Coding 3
Mode extension : CM (complete main)
Format settings, Endianness : Big
Codec ID : A_AC3
Duration : 43mn 59s
Bit rate mode : Constant
Bit rate : 384 Kbps
Channel(s) : 6 channels
Channel positions : Front: L C R, Side: L R, LFE
Sampling rate : 48.0 KHz
Bit depth : 16 bits
Compression mode : Lossy
Stream size : 121 MiB (8%)
Title : MVO Novafilm
Language : Russian
Default : No
Forced : No
Audio #5
ID : 5
Format : AC-3
Format/Info : Audio Coding 3
Mode extension : CM (complete main)
Format settings, Endianness : Big
Codec ID : A_AC3
Duration : 43mn 59s
Bit rate mode : Constant
Bit rate : 640 Kbps
Channel(s) : 6 channels
Channel positions : Front: L C R, Side: L R, LFE
Sampling rate : 48.0 KHz
Bit depth : 16 bits
Compression mode : Lossy
Stream size : 201 MiB (13%)
Title : Eng
Language : English
Default : No
Forced : No
Text #6
ID : 6
Format : UTF-8
Codec ID : S_TEXT/UTF8
Codec ID/Info : UTF-8 Plain Text
Language : Russian
Default : No
Forced : No
Text #7
ID : 7
Format : UTF-8
Codec ID : S_TEXT/UTF8
Codec ID/Info : UTF-8 Plain Text
Language : English
Default : No
Forced : No
\\Sosyn\t\Сериалы (Буржуйские)\Фантастика\За Гранью (Грань) - Fringe (2008-2013) 720p\Fringe.S03.2010\Fringe.S03.E16.2010.QUADRO.BDRip.720p.h264.AC3.mkv
General
Unique ID : 204613327751132551549606512524542704284 (0x99EF17EF335F3D96824F1B32F9057A9C)
Complete name : \\Sosyn\t\Сериалы (Буржуйские)\Фантастика\За Гранью (Грань) - Fringe (2008-2013) 720p\Fringe.S03.2010\Fringe.S03.E16.2010.QUADRO.BDRip.720p.h264.AC3.mkv
Format : Matroska
Format version : Version 2
File size : 1.54 GiB
Duration : 43mn 38s
Overall bit rate : 5 065 Kbps
Encoded date : UTC 2012-03-03 07:47:12
Writing application : mkvmerge v3.4.0 ('Rapunzel') сборка от May 15 2010 09:38:20
Writing library : libebml v0.8.0 + libmatroska v0.9.0
Video #1
ID : 1
Format : AVC
Format/Info : Advanced Video Codec
Format profile : High@L4.1
Format settings, CABAC : Yes
Format settings, ReFrames : 8 frames
Codec ID : V_MPEG4/ISO/AVC
Duration : 43mn 38s
Bit rate : 3 300 Kbps
Width : 1 280 pixels
Height : 720 pixels
Display aspect ratio : 16:9
Frame rate mode : Constant
Frame rate : 23.976 fps
Color space : YUV
Chroma subsampling : 4:2:0
Bit depth : 8 bits
Scan type : Progressive
Bits/(Pixel*Frame) : 0.149
Stream size : 1.01 GiB (65%)
Default : No
Forced : No
Audio #2
ID : 2
Format : AC-3
Format/Info : Audio Coding 3
Mode extension : CM (complete main)
Format settings, Endianness : Big
Codec ID : A_AC3
Duration : 43mn 38s
Bit rate mode : Constant
Bit rate : 192 Kbps
Channel(s) : 2 channels
Channel positions : Front: L R
Sampling rate : 48.0 KHz
Bit depth : 16 bits
Compression mode : Lossy
Stream size : 59.9 MiB (4%)
Title : Dub TV3
Language : Russian
Default : Yes
Forced : No
Audio #3
ID : 3
Format : AC-3
Format/Info : Audio Coding 3
Mode extension : CM (complete main)
Format settings, Endianness : Big
Codec ID : A_AC3
Duration : 43mn 38s
Bit rate mode : Constant
Bit rate : 448 Kbps
Channel(s) : 6 channels
Channel positions : Front: L C R, Side: L R, LFE
Sampling rate : 48.0 KHz
Bit depth : 16 bits
Compression mode : Lossy
Stream size : 140 MiB (9%)
Title : MVO Lostfilm
Language : Russian
Default : No
Forced : No
Audio #4
ID : 4
Format : AC-3
Format/Info : Audio Coding 3
Mode extension : CM (complete main)
Format settings, Endianness : Big
Codec ID : A_AC3
Duration : 43mn 38s
Bit rate mode : Constant
Bit rate : 384 Kbps
Channel(s) : 6 channels
Channel positions : Front: L C R, Side: L R, LFE
Sampling rate : 48.0 KHz
Bit depth : 16 bits
Compression mode : Lossy
Stream size : 120 MiB (8%)
Title : MVO Novafilm
Language : Russian
Default : No
Forced : No
Audio #5
ID : 5
Format : AC-3
Format/Info : Audio Coding 3
Mode extension : CM (complete main)
Format settings, Endianness : Big
Codec ID : A_AC3
Duration : 43mn 38s
Bit rate mode : Constant
Bit rate : 640 Kbps
Channel(s) : 6 channels
Channel positions : Front: L C R, Side: L R, LFE
Sampling rate : 48.0 KHz
Bit depth : 16 bits
Compression mode : Lossy
Stream size : 200 MiB (13%)
Title : Eng
Language : English
Default : No
Forced : No
Text #6
ID : 6
Format : UTF-8
Codec ID : S_TEXT/UTF8
Codec ID/Info : UTF-8 Plain Text
Language : Russian
Default : No
Forced : No
Text #7
ID : 7
Format : UTF-8
Codec ID : S_TEXT/UTF8
Codec ID/Info : UTF-8 Plain Text
Language : English
Default : No
Forced : No

\\Sosyn\t\Сериалы (Буржуйские)\Фантастика\За Гранью (Грань) - Fringe (2008-2013) 720p\Fringe.S04.2011\Fringe.S04E06.720p.Bluray.2xRus.Ukr.Eng.HDCLUB.mkv
General
Unique ID : 220779700646093070000449983312448978323 (0xA6189FA818FD58768EBF7F45121FFD93)
Complete name : \\Sosyn\t\Сериалы (Буржуйские)\Фантастика\За Гранью (Грань) - Fringe (2008-2013) 720p\Fringe.S04.2011\Fringe.S04E06.720p.Bluray.2xRus.Ukr.Eng.HDCLUB.mkv
Format : Matroska
Format version : Version 4 / Version 2
File size : 2.97 GiB
Duration : 43mn 59s
Overall bit rate : 9 663 Kbps
Encoded date : UTC 2014-02-12 20:45:07
Writing application : mkvmerge v6.5.0 ('Isn't she lovely') built on Oct 20 2013 12:50:05
Writing library : libebml v1.3.0 + libmatroska v1.4.1
Video #1
ID : 1
Format : AVC
Format/Info : Advanced Video Codec
Format profile : High@L4.1
Format settings, CABAC : Yes
Format settings, ReFrames : 9 frames
Codec ID : V_MPEG4/ISO/AVC
Duration : 43mn 59s
Bit rate : 6 746 Kbps
Width : 1 280 pixels
Height : 720 pixels
Display aspect ratio : 16:9
Frame rate mode : Constant
Frame rate : 23.976 fps
Color space : YUV
Chroma subsampling : 4:2:0
Bit depth : 8 bits
Scan type : Progressive
Bits/(Pixel*Frame) : 0.305
Stream size : 2.07 GiB (70%)
Writing library : x264 core 116 r2057 0ba8a9c
Encoding settings : cabac=1 / ref=9 / deblock=1:-3:-3 / analyse=0x3:0x133 / me=tesa / subme=10 / psy=1 / psy_rd=1.00:0.00 / mixed_ref=1 / me_range=32 / chroma_me=1 / trellis=2 / 8x8dct=1 / cqm=0 / deadzone=21,11 / fast_pskip=0 / chroma_qp_offset=-2 / threads=18 / sliced_threads=0 / nr=0 / decimate=0 / interlaced=0 / bluray_compat=0 / constrained_intra=0 / bframes=7 / b_pyramid=2 / b_adapt=2 / b_bias=0 / direct=3 / weightb=1 / open_gop=0 / weightp=2 / keyint=250 / keyint_min=23 / scenecut=40 / intra_refresh=0 / rc_lookahead=40 / rc=crf / mbtree=0 / crf=17.5 / qcomp=0.75 / qpmin=0 / qpmax=40 / qpstep=4 / vbv_maxrate=50000 / vbv_bufsize=50000 / crf_max=0.0 / nal_hrd=none / ip_ratio=1.25 / pb_ratio=1.25 / aq=1:0.80
Language : English
Default : Yes
Forced : No
Audio #2
ID : 2
Format : AC-3
Format/Info : Audio Coding 3
Mode extension : CM (complete main)
Format settings, Endianness : Big
Codec ID : A_AC3
Duration : 43mn 59s
Bit rate mode : Constant
Bit rate : 192 Kbps
Channel(s) : 2 channels
Channel positions : Front: L R
Sampling rate : 48.0 KHz
Bit depth : 16 bits
Compression mode : Lossy
Stream size : 60.4 MiB (2%)
Title : TV3 @ DD 2.0
Language : Russian
Default : Yes
Forced : No
Audio #3
ID : 3
Format : DTS
Format/Info : Digital Theater Systems
Mode : 16
Format settings, Endianness : Big
Codec ID : A_DTS
Duration : 43mn 59s
Bit rate mode : Constant
Bit rate : 1 509 Kbps
Channel(s) : 6 channels
Channel positions : Front: L C R, Side: L R, LFE
Sampling rate : 48.0 KHz
Bit depth : 16 bits
Compression mode : Lossy
Stream size : 475 MiB (16%)
Title : LostFilm @ DTS 5.1
Language : Russian
Default : No
Forced : No
Audio #4
ID : 4
Format : AC-3
Format/Info : Audio Coding 3
Mode extension : CM (complete main)
Format settings, Endianness : Big
Codec ID : A_AC3
Duration : 43mn 59s
Bit rate mode : Constant
Bit rate : 384 Kbps
Channel(s) : 6 channels
Channel positions : Front: L C R, Side: L R, LFE
Sampling rate : 48.0 KHz
Bit depth : 16 bits
Compression mode : Lossy
Stream size : 121 MiB (4%)
Title : UATeam @ DD 5.1
Language : Ukrainian
Default : No
Forced : No
Audio #5
ID : 5
Format : AC-3
Format/Info : Audio Coding 3
Mode extension : CM (complete main)
Format settings, Endianness : Big
Codec ID : A_AC3
Duration : 43mn 59s
Bit rate mode : Constant
Bit rate : 640 Kbps
Channel(s) : 6 channels
Channel positions : Front: L C R, Side: L R, LFE
Sampling rate : 48.0 KHz
Bit depth : 16 bits
Compression mode : Lossy
Stream size : 201 MiB (7%)
Title : Original @ DD 5.1
Language : English
Default : No
Forced : No
Text #6
ID : 6
Format : UTF-8
Codec ID : S_TEXT/UTF8
Codec ID/Info : UTF-8 Plain Text
Title : AmberTeam
Language : Russian
Default : No
Forced : No
Text #7
ID : 7
Format : UTF-8
Codec ID : S_TEXT/UTF8
Codec ID/Info : UTF-8 Plain Text
Language : English
Default : No
Forced : No

\\Sosyn\t\Сериалы (Буржуйские)\Фантастика\За Гранью (Грань) - Fringe (2008-2013) 720p\Fringe.S04.2011\Fringe.S04E19.720p.Bluray.2xRus.Ukr.Eng.HDCLUB.mkv
General
Unique ID : 244433234454126569307976752003570166079 (0xB7E420E98FB23EADA4D8CD446AFF693F)
Complete name : \\Sosyn\t\Сериалы (Буржуйские)\Фантастика\За Гранью (Грань) - Fringe (2008-2013) 720p\Fringe.S04.2011\Fringe.S04E19.720p.Bluray.2xRus.Ukr.Eng.HDCLUB.mkv
Format : Matroska
Format version : Version 4 / Version 2
File size : 3.16 GiB
Duration : 43mn 35s
Overall bit rate : 10.4 Mbps
Encoded date : UTC 2014-02-13 12:38:15
Writing application : mkvmerge v6.5.0 ('Isn't she lovely') built on Oct 20 2013 12:50:05
Writing library : libebml v1.3.0 + libmatroska v1.4.1
Video #1
ID : 1
Format : AVC
Format/Info : Advanced Video Codec
Format profile : High@L4.1
Format settings, CABAC : Yes
Format settings, ReFrames : 9 frames
Codec ID : V_MPEG4/ISO/AVC
Duration : 43mn 35s
Bit rate : 7 441 Kbps
Width : 1 280 pixels
Height : 720 pixels
Display aspect ratio : 16:9
Frame rate mode : Constant
Frame rate : 23.976 fps
Color space : YUV
Chroma subsampling : 4:2:0
Bit depth : 8 bits
Scan type : Progressive
Bits/(Pixel*Frame) : 0.337
Stream size : 2.27 GiB (72%)
Writing library : x264 core 116 r2057 0ba8a9c
Encoding settings : cabac=1 / ref=9 / deblock=1:-3:-3 / analyse=0x3:0x133 / me=umh / subme=10 / psy=1 / psy_rd=1.00:0.00 / mixed_ref=1 / me_range=32 / chroma_me=1 / trellis=2 / 8x8dct=1 / cqm=0 / deadzone=21,11 / fast_pskip=0 / chroma_qp_offset=-2 / threads=18 / sliced_threads=0 / nr=0 / decimate=0 / interlaced=0 / bluray_compat=0 / constrained_intra=0 / bframes=7 / b_pyramid=2 / b_adapt=2 / b_bias=0 / direct=3 / weightb=1 / open_gop=0 / weightp=2 / keyint=250 / keyint_min=23 / scenecut=40 / intra_refresh=0 / rc_lookahead=40 / rc=crf / mbtree=0 / crf=17.5 / qcomp=0.75 / qpmin=0 / qpmax=40 / qpstep=4 / vbv_maxrate=50000 / vbv_bufsize=50000 / crf_max=0.0 / nal_hrd=none / ip_ratio=1.25 / pb_ratio=1.25 / aq=1:0.80
Language : English
Default : Yes
Forced : No
Audio #2
ID : 2
Format : AC-3
Format/Info : Audio Coding 3
Mode extension : CM (complete main)
Format settings, Endianness : Big
Codec ID : A_AC3
Duration : 43mn 35s
Bit rate mode : Constant
Bit rate : 192 Kbps
Channel(s) : 2 channels
Channel positions : Front: L R
Sampling rate : 48.0 KHz
Bit depth : 16 bits
Compression mode : Lossy
Stream size : 59.9 MiB (2%)
Title : TV3 @ DD 2.0
Language : Russian
Default : Yes
Forced : No
Audio #3
ID : 3
Format : DTS
Format/Info : Digital Theater Systems
Mode : 16
Format settings, Endianness : Big
Codec ID : A_DTS
Duration : 43mn 35s
Bit rate mode : Constant
Bit rate : 1 509 Kbps
Channel(s) : 6 channels
Channel positions : Front: L C R, Side: L R, LFE
Sampling rate : 48.0 KHz
Bit depth : 16 bits
Compression mode : Lossy
Stream size : 471 MiB (15%)
Title : LostFilm @ DTS 5.1
Language : Russian
Default : No
Forced : No
Audio #4
ID : 4
Format : AC-3
Format/Info : Audio Coding 3
Mode extension : CM (complete main)
Format settings, Endianness : Big
Codec ID : A_AC3
Duration : 43mn 35s
Bit rate mode : Constant
Bit rate : 384 Kbps
Channel(s) : 6 channels
Channel positions : Front: L C R, Side: L R, LFE
Sampling rate : 48.0 KHz
Bit depth : 16 bits
Compression mode : Lossy
Stream size : 120 MiB (4%)
Title : UATeam @ DD 5.1
Language : Ukrainian
Default : No
Forced : No
Audio #5
ID : 5
Format : AC-3
Format/Info : Audio Coding 3
Mode extension : CM (complete main)
Format settings, Endianness : Big
Codec ID : A_AC3
Duration : 43mn 35s
Bit rate mode : Constant
Bit rate : 640 Kbps
Channel(s) : 6 channels
Channel positions : Front: L C R, Side: L R, LFE
Sampling rate : 48.0 KHz
Bit depth : 16 bits
Compression mode : Lossy
Stream size : 200 MiB (6%)
Title : Original @ DD 5.1
Language : English
Default : No
Forced : No
Text #6
ID : 6
Format : UTF-8
Codec ID : S_TEXT/UTF8
Codec ID/Info : UTF-8 Plain Text
Title : AmberTeam
Language : Russian
Default : No
Forced : No
Text #7
ID : 7
Format : UTF-8
Codec ID : S_TEXT/UTF8
Codec ID/Info : UTF-8 Plain Text
Language : English
Default : No
Forced : No
\\Sosyn\t\Сериалы (Буржуйские)\Фантастика\За Гранью (Грань) - Fringe (2008-2013) 720p\Fringe.S05.2012\Fringe.S05E04.720p.BluRay.2xRus.Ukr.Eng.HDCLUB.mkv
General
Unique ID : 186731771131542328934258095654052775753 (0x8C7B3B202234F40FBE96B78D8BBB4749)
Complete name : \\Sosyn\t\Сериалы (Буржуйские)\Фантастика\За Гранью (Грань) - Fringe (2008-2013) 720p\Fringe.S05.2012\Fringe.S05E04.720p.BluRay.2xRus.Ukr.Eng.HDCLUB.mkv
Format : Matroska
Format version : Version 4 / Version 2
File size : 2.72 GiB
Duration : 43mn 48s
Overall bit rate : 8 877 Kbps
Encoded date : UTC 2014-01-24 13:47:03
Writing application : mkvmerge v6.5.0 ('Isn't she lovely') built on Oct 20 2013 12:50:05
Writing library : libebml v1.3.0 + libmatroska v1.4.1
Video #1
ID : 1
Format : AVC
Format/Info : Advanced Video Codec
Format profile : High@L4.1
Format settings, CABAC : Yes
Format settings, ReFrames : 9 frames
Codec ID : V_MPEG4/ISO/AVC
Duration : 43mn 48s
Bit rate : 5 976 Kbps
Width : 1 280 pixels
Height : 720 pixels
Display aspect ratio : 16:9
Frame rate mode : Constant
Frame rate : 23.976 fps
Color space : YUV
Chroma subsampling : 4:2:0
Bit depth : 8 bits
Scan type : Progressive
Bits/(Pixel*Frame) : 0.270
Stream size : 1.83 GiB (67%)
Writing library : x264 core 133 r2334+704+50 a7549b7 tMod [8-bit@4:2:0 X86]
Encoding settings : cabac=1 / ref=9 / deblock=1:-3:-3 / analyse=0x3:0x113 / me=umh / subme=10 / psy=1 / fade_compensate=0.00 / psy_rd=1.08:0.05 / mixed_ref=1 / me_range=32 / chroma_me=1 / trellis=2 / 8x8dct=1 / cqm=0 / deadzone=21,11 / fast_pskip=0 / chroma_qp_offset=-3 / threads=6 / lookahead_threads=1 / sliced_threads=0 / nr=0 / decimate=0 / interlaced=0 / bluray_compat=0 / constrained_intra=0 / fgo=0 / bframes=8 / b_pyramid=2 / b_adapt=2 / b_bias=0 / direct=3 / weightb=1 / open_gop=0 / weightp=2 / keyint=250 / keyint_min=23 / scenecut=40 / intra_refresh=0 / rc_lookahead=175 / rc=crf / mbtree=1 / crf=16.0000 / qcomp=0.72 / qpmin=0 / qpmax=69 / qpstep=4 / vbv_maxrate=50000 / vbv_bufsize=62500 / crf_max=0.0 / nal_hrd=none / ip_ratio=1.20 / aq=3:0.65 / aq-sensitivity=10.00 / aq-factor=1.00:1.00:1.00 / aq2=0 / aq3=0
Language : English
Default : Yes
Forced : No
Audio #2
ID : 2
Format : AC-3
Format/Info : Audio Coding 3
Mode extension : CM (complete main)
Format settings, Endianness : Big
Codec ID : A_AC3
Duration : 43mn 48s
Bit rate mode : Constant
Bit rate : 192 Kbps
Channel(s) : 2 channels
Channel positions : Front: L R
Sampling rate : 48.0 KHz
Bit depth : 16 bits
Compression mode : Lossy
Stream size : 60.2 MiB (2%)
Title : TV3 @ DD 2.0
Language : Russian
Default : Yes
Forced : No
Audio #3
ID : 3
Format : DTS
Format/Info : Digital Theater Systems
Mode : 16
Format settings, Endianness : Big
Codec ID : A_DTS
Duration : 43mn 48s
Bit rate mode : Constant
Bit rate : 1 509 Kbps
Channel(s) : 6 channels
Channel positions : Front: L C R, Side: L R, LFE
Sampling rate : 48.0 KHz
Bit depth : 16 bits
Compression mode : Lossy
Stream size : 473 MiB (17%)
Title : LostFilm @ DTS 5.1
Language : Russian
Default : No
Forced : No
Audio #4
ID : 4
Format : AC-3
Format/Info : Audio Coding 3
Mode extension : CM (complete main)
Format settings, Endianness : Big
Codec ID : A_AC3
Duration : 43mn 48s
Bit rate mode : Constant
Bit rate : 384 Kbps
Channel(s) : 6 channels
Channel positions : Front: L C R, Side: L R, LFE
Sampling rate : 48.0 KHz
Bit depth : 16 bits
Compression mode : Lossy
Stream size : 120 MiB (4%)
Title : UATeam @ DD 5.1
Language : Ukrainian
Default : No
Forced : No
Audio #5
ID : 5
Format : AC-3
Format/Info : Audio Coding 3
Mode extension : CM (complete main)
Format settings, Endianness : Big
Codec ID : A_AC3
Duration : 43mn 48s
Bit rate mode : Constant
Bit rate : 640 Kbps
Channel(s) : 6 channels
Channel positions : Front: L C R, Side: L R, LFE
Sampling rate : 48.0 KHz
Bit depth : 16 bits
Compression mode : Lossy
Stream size : 201 MiB (7%)
Title : Original @ DD 5.1
Language : English
Default : No
Forced : No
Text #6
ID : 6
Format : UTF-8
Codec ID : S_TEXT/UTF8
Codec ID/Info : UTF-8 Plain Text
Language : English
Default : No
Forced : No
Text #7
ID : 7
Format : UTF-8
Codec ID : S_TEXT/UTF8
Codec ID/Info : UTF-8 Plain Text
Title : SDH
Language : English
Default : No
Forced : No
\\Sosyn\t\Сериалы (Буржуйские)\Фантастика\За Гранью (Грань) - Fringe (2008-2013) 720p\Fringe.S05.2012\Fringe.S05E12.720p.BluRay.2xRus.Ukr.Eng.HDCLUB.mkv
General
Unique ID : 189393419684669904835293777735216519168 (0x8E7BD887ECF5E6C3B5C4074AABABD800)
Complete name : \\Sosyn\t\Сериалы (Буржуйские)\Фантастика\За Гранью (Грань) - Fringe (2008-2013) 720p\Fringe.S05.2012\Fringe.S05E12.720p.BluRay.2xRus.Ukr.Eng.HDCLUB.mkv
Format : Matroska
Format version : Version 4 / Version 2
File size : 2.51 GiB
Duration : 43mn 12s
Overall bit rate : 8 332 Kbps
Encoded date : UTC 2014-01-24 15:25:51
Writing application : mkvmerge v6.5.0 ('Isn't she lovely') built on Oct 20 2013 12:50:05
Writing library : libebml v1.3.0 + libmatroska v1.4.1
Video #1
ID : 1
Format : AVC
Format/Info : Advanced Video Codec
Format profile : High@L4.1
Format settings, CABAC : Yes
Format settings, ReFrames : 9 frames
Codec ID : V_MPEG4/ISO/AVC
Duration : 43mn 12s
Bit rate : 5 441 Kbps
Width : 1 280 pixels
Height : 720 pixels
Display aspect ratio : 16:9
Frame rate mode : Constant
Frame rate : 23.976 fps
Color space : YUV
Chroma subsampling : 4:2:0
Bit depth : 8 bits
Scan type : Progressive
Bits/(Pixel*Frame) : 0.246
Stream size : 1.64 GiB (65%)
Writing library : x264 core 133 r2334+704+50 a7549b7 tMod [8-bit@4:2:0 X86]
Encoding settings : cabac=1 / ref=9 / deblock=1:-3:-3 / analyse=0x3:0x113 / me=umh / subme=10 / psy=1 / fade_compensate=0.00 / psy_rd=1.08:0.05 / mixed_ref=1 / me_range=32 / chroma_me=1 / trellis=2 / 8x8dct=1 / cqm=0 / deadzone=21,11 / fast_pskip=0 / chroma_qp_offset=-3 / threads=6 / lookahead_threads=1 / sliced_threads=0 / nr=0 / decimate=0 / interlaced=0 / bluray_compat=0 / constrained_intra=0 / fgo=0 / bframes=8 / b_pyramid=2 / b_adapt=2 / b_bias=0 / direct=3 / weightb=1 / open_gop=0 / weightp=2 / keyint=250 / keyint_min=23 / scenecut=40 / intra_refresh=0 / rc_lookahead=175 / rc=crf / mbtree=1 / crf=16.0000 / qcomp=0.72 / qpmin=0 / qpmax=69 / qpstep=4 / vbv_maxrate=50000 / vbv_bufsize=62500 / crf_max=0.0 / nal_hrd=none / ip_ratio=1.20 / aq=3:0.65 / aq-sensitivity=10.00 / aq-factor=1.00:1.00:1.00 / aq2=0 / aq3=0
Language : English
Default : Yes
Forced : No
Audio #2
ID : 2
Format : AC-3
Format/Info : Audio Coding 3
Mode extension : CM (complete main)
Format settings, Endianness : Big
Codec ID : A_AC3
Duration : 43mn 12s
Bit rate mode : Constant
Bit rate : 192 Kbps
Channel(s) : 2 channels
Channel positions : Front: L R
Sampling rate : 48.0 KHz
Bit depth : 16 bits
Compression mode : Lossy
Stream size : 59.3 MiB (2%)
Title : TV3 @ DD 2.0
Language : Russian
Default : Yes
Forced : No
Audio #3
ID : 3
Format : DTS
Format/Info : Digital Theater Systems
Mode : 16
Format settings, Endianness : Big
Codec ID : A_DTS
Duration : 43mn 12s
Bit rate mode : Constant
Bit rate : 1 509 Kbps
Channel(s) : 6 channels
Channel positions : Front: L C R, Side: L R, LFE
Sampling rate : 48.0 KHz
Bit depth : 16 bits
Compression mode : Lossy
Stream size : 466 MiB (18%)
Title : LostFilm @ DTS 5.1
Language : Russian
Default : No
Forced : No
Audio #4
ID : 4
Format : AC-3
Format/Info : Audio Coding 3
Mode extension : CM (complete main)
Format settings, Endianness : Big
Codec ID : A_AC3
Duration : 43mn 12s
Bit rate mode : Constant
Bit rate : 384 Kbps
Channel(s) : 6 channels
Channel positions : Front: L C R, Side: L R, LFE
Sampling rate : 48.0 KHz
Bit depth : 16 bits
Compression mode : Lossy
Stream size : 119 MiB (5%)
Title : UATeam @ DD 5.1
Language : Ukrainian
Default : No
Forced : No
Audio #5
ID : 5
Format : AC-3
Format/Info : Audio Coding 3
Mode extension : CM (complete main)
Format settings, Endianness : Big
Codec ID : A_AC3
Duration : 43mn 12s
Bit rate mode : Constant
Bit rate : 640 Kbps
Channel(s) : 6 channels
Channel positions : Front: L C R, Side: L R, LFE
Sampling rate : 48.0 KHz
Bit depth : 16 bits
Compression mode : Lossy
Stream size : 198 MiB (8%)
Title : Original @ DD 5.1
Language : English
Default : No
Forced : No
Text #6
ID : 6
Format : UTF-8
Codec ID : S_TEXT/UTF8
Codec ID/Info : UTF-8 Plain Text
Language : English
Default : No
Forced : No
Text #7
ID : 7
Format : UTF-8
Codec ID : S_TEXT/UTF8
Codec ID/Info : UTF-8 Plain Text
Title : SDH
Language : English
Default : No
Forced : No




Скачать Грань.Fringe.(Сезон.01-05.серии.01-100.из.100).(Джей.Джей.Абрамс).[2008-2013.Драма.Ужасы.Детектив.Фантастика.Триллер.BDRip].[720p].[DUB].+.2x[MVO].(LostFilm.NovaFilm).torrent без регистрации
Золото ЗОЛОТАЯ РАЗДАЧА! СКАЧАННОЕ НЕ ЗАСЧИТЫВАЕТСЯ! Золото
Дата: Зарегистрирован   [ Тип: внутренний ] Как тут cкачать?
MAGNET ссылка
MAGNET ссылка


Скачать .torrent

1 MB

Статус: проверено DHT
Скачан: торрент - 10 раз, раздача полностью - 2 раз
Размер: 206,89 GB
Оценка:  5 (Голосов: 1)
Поблагодарили: 1
Поделиться ссылкой на эту раздачу с друзьями:
В контактеFacebookОдноклассникиTwitterLivejournalМой МирLiveinternet
 

 
Показать сообщения:    


Вы не можете начинать темы
Вы не можете отвечать на сообщения
Вы не можете редактировать свои сообщения
Вы не можете удалять свои сообщения
Вы не можете голосовать в опросах
Вы не можете прикреплять файлы к сообщениям
Вы можете скачивать файлы