Loading...
Error

Скачать Жил-был кот / Rudorufu to ippai attena / Rudolf The Black Cat (Микинори Сакакибара, Кунихико Юяма) [2016, комедия, приключения, WEB-DL] [720p] [Локализованный видеоряд] [DUB] [Лицензия / iTunes] торрент без регистрации

Статистика раздачи
Размер:  2,68 GB   |    Скачан:  126 раз
Сидов:  1  [  0 KB/s  ]  
 
 
 
Автор Сообщение

leon030982

[] 

Жил-был кот /Rudorufu to ippai attena / Rudolf The Black Cat

Год выхода: 2016
Жанр: комедия, приключения
Страна: Япония, Канада
Студия: Bandai, Chukyo TV Broadcasting Company (CTV), D.N. Dream Partners, Dentsu и еще 17...
Продолжительность: 01:27:42
Перевод: Дублированный [Лицензия / iTunes]
•Примечание: Исходник с онлайн кинотеатра. Видеоряд локализован (все надписи на Русском языке)

Режиссер: Микинори Сакакибара, Кунихико Юяма

В ролях: Мао Иноуэ, Рёхэй Судзуки, Норито Ясима, Арата Фурута, Сандаю Докумамуси, Нана Мидзуки, Рио Сасаки, Юка Тэрасаки, Акио Оцука

О фильме:
История маленького чёрного котёнка с гордым именем Рудольф, жившего счастливо и спокойно ровно до тех пор, пока по роковой случайности он не оказался в неизвестном большом городе. Здесь герою придётся выживать без ласки и заботы хозяев, а ведь раньше он был твёрдо убежден, что всегда будет в полной безопасности. Блуждая по улицам незнакомого города, Рудо встречает взрослого полосатого кота, нагоняющего ужас на всю округу. Он становится для малыша наставником, учит жизни на улице и помогает обрести новых друзей.



Качество: WEB-DL 720p [Локализованный видеоряд]
Кодек: MKV
Видео: 1280x720 (16:9), 24.000 fps, AVC, 3 907 Kbps
Звук: AC3, 48 KHz, 6 ch ~ 384 Kb/s
Субтитры: отсутствуют
General
Unique ID : 217522869266011802369585372735148064268 (0xA3A56178E327CCD3ABAA88DCA716FE0C)
Complete name : Rudolf.The.Black.Cat.2017.WEB-DL.720p.mkv
Format : Matroska
Format version : Version 4 / Version 2
File size : 2.68 GiB
Duration : 1h 27mn
Overall bit rate : 4 379 Kbps
Encoded date : UTC 2017-08-27 10:01:38
Writing application : mkvmerge v14.0.0 ('Flow') 64bit
Writing library : libebml v1.3.4 + libmatroska v1.4.5
DURATION : 01:27:42.304000000
NUMBER_OF_FRAMES : 164447
NUMBER_OF_BYTES : 252590592
_STATISTICS_WRITING_APP : mkvmerge v14.0.0 ('Flow') 64bit
_STATISTICS_WRITING_DATE_UTC : 2017-08-27 10:01:38
_STATISTICS_TAGS : BPS DURATION NUMBER_OF_FRAMES NUMBER_OF_BYTES

Video
ID : 1
Format : AVC
Format/Info : Advanced Video Codec
Format profile : High@L3.1
Format settings, CABAC : No
Format settings, ReFrames : 2 frames
Codec ID : V_MPEG4/ISO/AVC
Duration : 1h 27mn
Bit rate : 3 907 Kbps
Width : 1 280 pixels
Height : 720 pixels
Display aspect ratio : 16:9
Frame rate mode : Constant
Frame rate : 24.000 fps
Color space : YUV
Chroma subsampling : 4:2:0
Bit depth : 8 bits
Scan type : Progressive
Bits/(Pixel*Frame) : 0.177
Stream size : 2.39 GiB (89%)
Title : Локализованный видеоряд | iTunes
Language : Russian
Default : Yes
Forced : No
Color primaries : BT.709
Transfer characteristics : BT.709
Matrix coefficients : BT.709

Audio
ID : 2
Format : AC-3
Format/Info : Audio Coding 3
Mode extension : CM (complete main)
Format settings, Endianness : Big
Codec ID : A_AC3
Duration : 1h 27mn
Bit rate mode : Constant
Bit rate : 384 Kbps
Channel(s) : 6 channels
Channel positions : Front: L C R, Side: L R, LFE
Sampling rate : 48.0 KHz
Bit depth : 16 bits
Compression mode : Lossy
Stream size : 241 MiB (9%)
Title : DUB | Баритон | iTunes
Language : Russian
Default : Yes
Forced : No

Menu
00:00:00.000 : ja:Глава 01
00:05:48.583 : ja:Глава 02
00:12:56.333 : ja:Глава 03
00:17:46.833 : ja:Глава 04
00:22:58.749 : ja:Глава 05
00:28:41.874 : ja:Глава 06
00:36:17.957 : ja:Глава 07
00:42:31.873 : ja:Глава 08
00:47:33.581 : ja:Глава 09
00:54:04.206 : ja:Глава 10
00:59:48.997 : ja:Глава 11
01:05:24.288 : ja:Глава 12
01:11:06.996 : ja:Глава 13
01:19:00.496 : ja:Глава 14



Скачать Жил-был.кот.Rudorufu.to.ippai.attena.Rudolf.The.Black.Cat.(Микинори.Сакакибара.Кунихико.Юяма).[2016.комедия.приключения.WEB-DL].[720p].[Локализованный.видеоряд].[DUB].[Лицензия.iTunes].torrent без регистрации
Золото ЗОЛОТАЯ РАЗДАЧА! СКАЧАННОЕ НЕ ЗАСЧИТЫВАЕТСЯ! Золото
Дата: Зарегистрирован   [ Тип: внутренний ] Как тут cкачать?
MAGNET ссылка
MAGNET ссылка


Скачать .torrent

14 KB

Статус: проверено DHT
Скачан: торрент - 126 раз, раздача полностью - 154 раз
Размер: 2,68 GB
Оценка:  5 (Голосов: 1)
Поблагодарили: 3
Поделиться ссылкой на эту раздачу с друзьями:
В контактеFacebookОдноклассникиTwitterLivejournalМой МирLiveinternet
 

 
Показать сообщения:    


Вы не можете начинать темы
Вы не можете отвечать на сообщения
Вы не можете редактировать свои сообщения
Вы не можете удалять свои сообщения
Вы не можете голосовать в опросах
Вы не можете прикреплять файлы к сообщениям
Вы можете скачивать файлы