Loading...
Error

Скачать Электрические сны Филипа К. Дика / Philip K. Dick's Electric Dream (Сезон 01, серии 01-04 из 10) (Майкл Диннер, Дэвид Фарр, Франческа Грегорини, Том Харпер, Питер Хортон) [2017, драма, фантастика, WEB-DL] [720p] [DVO] (Кубик в Кубе) торрент без регистрации

Статистика раздачи
Размер:  5,75 GB   |    Скачан:  23 раза
Сидов:  1  [  0 KB/s  ]  

 
 
 
Автор Сообщение

leon030982

[] 

Электрические сны Филипа К. Дика / Philip K. Dick's Electric Dream



Год выпуска: 2017
Страна: США, Великобритания, Channel 4, Sony Pictures Television
Жанр: драма, фантастика
Продолжительность: 1х ~ 00:53:05
Перевод: Профессиональный (двухголосый) *Кубик в Кубе*
Субтитры: английские

Режиссёры: Майкл Диннер, Дэвид Фарр, Франческа Грегорини, Том Харпер, Питер Хортон

В ролях: Брайан Крэнстон, Стив Бушеми, Вера Фармига, Мирей Инос, Грег Киннир, Тимоти Сполл, Бенедикт Вонг, Холлидей Грейнджер, Ричард Мэдден, Лара Пулвер

Описание: Сериал-антология. Сборник экранизаций научно-фантастических рассказов знаменитого писателя Филипа К. Дика.




Работа со звуком: messafan

Качество: WEB-DL 720p
Формат: MKV
Видео: 1280x720 at 23.976 fps, MPEG-4 AVC, ~ 4300 Kbps
Аудио: AC-3, 48.0 kHz, 6 channels, 448 kb/s - DVO
Аудио: AC-3, 48.0 kHz, 6 channels, 448 kb/s - ENG

Торент обновлен! добавлена 4-я серия
Внимание! Раздача ведётся путём добавления новых серий - по мере выхода серий, раздача будет обновляться, и при каждом добавлении создаваться новый торрент.
Чтобы начать докачку новой серии, пользователям необходимо:
1. Остановить скачивание.
2. Удалить старый торрент у себя из клиента (старые серии удалять не надо).
3. Скачать новый торрент и запустить его у себя в клиенте вместо старого, при этом указать клиенту путь в старую папку куда и должно происходить скачивание новых серий.

Ваш клиент при этом должен произвести хеширование (проверку) старой папки (если не производит сам - помогите ему сделать это), и будет докачивать только те серии которых у вас ещё нет. Старые серии при этом не удаляются, а продолжают раздаваться. Eсли вы уже удалили старые серии, то предотвратить повторную закачку старых серий можно отжав галочку в соответствующих местах при запуске нового торрента. По возможности, желательно не удалять старые серии как можно дольше, чтобы релизер не столько продолжал раздавать старые серии, сколько мог сконцентрироваться на новых.
General
Unique ID : 192574923939661961922123773440714154340 (0x90E094CD268A4B8FA7B3CB13E02D2164)
Complete name : E:\Philip.K.Dicks.Electric.Dreams.S01.720p.WEBDL.KvK.CasStudio.TV\Philip.K.Dicks.Electric.Dreams.S01E01.The.Hood.Maker.720p.WEB-DL.KvK.CasStudio.TV.mkv
Format : Matroska
Format version : Version 4 / Version 2
File size : 1.99 GiB
Duration : 54mn 20s
Overall bit rate : 5 231 Kbps
Movie name : Philip K. Dick's Electric Dreams 01x01 (The Hood Maker) - release by messafan for CasStudio.TV
Encoded date : UTC 2017-09-21 08:23:37
Writing application : mkvmerge v6.7.0 ('Back to the Ground') 64bit built on Jan 8 2014 15:10:52
Writing library : libebml v1.3.0 + libmatroska v1.4.1

Video
ID : 1
Format : AVC
Format/Info : Advanced Video Codec
Format profile : Main@L3.1
Format settings, CABAC : Yes
Format settings, ReFrames : 4 frames
Codec ID : V_MPEG4/ISO/AVC
Duration : 54mn 20s
Bit rate : 4 231 Kbps
Width : 1 280 pixels
Height : 720 pixels
Display aspect ratio : 16:9
Frame rate mode : Constant
Frame rate : 23.976 fps
Color space : YUV
Chroma subsampling : 4:2:0
Bit depth : 8 bits
Scan type : Progressive
Bits/(Pixel*Frame) : 0.191
Stream size : 1.61 GiB (81%)
Writing library : Zencoder Video Encoding System
Default : Yes
Forced : No

Audio #1
ID : 2
Format : AC-3
Format/Info : Audio Coding 3
Mode extension : CM (complete main)
Format settings, Endianness : Big
Codec ID : A_AC3
Duration : 54mn 20s
Bit rate mode : Constant
Bit rate : 448 Kbps
Channel(s) : 6 channels
Channel positions : Front: L C R, Side: L R, LFE
Sampling rate : 48.0 KHz
Compression mode : Lossy
Stream size : 174 MiB (9%)
Title : KvK DD5.1 @ 448kbps
Language : Russian
Default : Yes
Forced : No

Audio #2
ID : 3
Format : AC-3
Format/Info : Audio Coding 3
Mode extension : CM (complete main)
Format settings, Endianness : Big
Codec ID : A_AC3
Duration : 54mn 20s
Bit rate mode : Constant
Bit rate : 448 Kbps
Channel(s) : 6 channels
Channel positions : Front: L C R, Side: L R, LFE
Sampling rate : 48.0 KHz
Compression mode : Lossy
Stream size : 174 MiB (9%)
Title : English DD5.1 @ 448kbps
Language : English
Default : No
Forced : No

Text
ID : 4
Format : UTF-8
Codec ID : S_TEXT/UTF8
Codec ID/Info : UTF-8 Plain Text
Title : Eng sub
Language : English
Default : No
Forced : No





Скачать Электрические.сны.Филипа.К.Дика.Philip.K.Dick's.Electric.Dream.(Сезон.01.серии.01-04.из.10).(Майкл.Диннер.Дэвид.Фарр.Франческа.Грегорини.Том.Харпер.Питер.Хортон).[2017.драма.фантастика.WEB-DL].[720p].[DVO].(Кубик.в.Кубе).torrent без регистрации
Золото ЗОЛОТАЯ РАЗДАЧА! СКАЧАННОЕ НЕ ЗАСЧИТЫВАЕТСЯ! Золото
Дата: Зарегистрирован   [ Тип: внутренний ] Как тут cкачать?
MAGNET ссылка
MAGNET ссылка


Скачать .torrent

30 KB

Статус: проверено DHT
Скачан: торрент - 23 раз, раздача полностью - 4 раз
Размер: 5,75 GB
Оценка:  - (Голосов: 0)
Поблагодарили: 0
Поделиться ссылкой на эту раздачу с друзьями:
В контактеFacebookОдноклассникиTwitterLivejournalМой МирLiveinternet
 

 
Показать сообщения:    


Вы не можете начинать темы
Вы не можете отвечать на сообщения
Вы не можете редактировать свои сообщения
Вы не можете удалять свои сообщения
Вы не можете голосовать в опросах
Вы не можете прикреплять файлы к сообщениям
Вы можете скачивать файлы