Loading...
Error

Скачать Готэм / Gotham (Сезон 04, серии 01-16 из 22) (Дэнни Кэннон, Т.Дж. Скотт, Дермотт Даунс) [2017-2018, фантастика, боевик, триллер, драма, криминал, детектив, WEB-DL] [720p] [DVO] (Gears Media) торрент без регистрации

Статистика раздачи
Размер:  15,99 GB   |    Скачан:  65 раз
Сидов:  1  [  0 KB/s  ]  
 
 
 
Автор Сообщение

leon030982

[] 


Готэм / Gotham◈

✦ Год выхода: 2017-2018
✦ Жанр: фантастика, боевик, триллер, драма, криминал, детектив
✦ Страна: США
✦ Продолжительность: ~ 00:44:00
✦ Перевод: Профессиональный (двухголосый закадровый) Gears Media


✦ Режиссер: Дэнни Кэннон

✦ В ролях: Бен МакКензи, Шон Пертуи, Робин Тейлор, Забрина Гевара, Эрин Ричардс, Донал Лог, Джада Пинкетт Смит, Дэвид Мазоуз, Камрен Бикондова, Кори Майкл Смит и др.



Новый сотрудник департамента полиции Готэма, детектив Джеймс Гордон и его напарник Харви Баллок назначаются начальником отдела полиции Готэма по расследованию убийств Сарой Эссен на самое громкое дело последних лет - убийство Томаса и Марты Уэйн. Во время расследования Гордон знакомится с сыном убитых - Брюсом Уэйном, который после смерти родителей находится под опекой своего дворецкого Альфреда. Одновременно с расследованием убийства Гордону приходится бороться с местным главарем банды Фишем Муни, а также с будущими злодеями Готэма: Селиной Кайл и Освальдом Кобблпотом. В итоге, Гордон фокусируется на дружбе с молодым Брюсом, чтобы в будущем сделать из маленького мальчика Тёмного рыцаря - защитника Готэма.




Информация о файле:
✦ Качество: WEB-DL 720p
✦ Формат: MKV
✦ Видео кодек: AVC
✦ Аудио кодек: AC3, E-AC3
✦ Видео: MPEG-4 AVC, ~ 3000 Кбит/с, 1280x720, 23.976 fps
✦ Аудио: 48 kHz, AC3, 2 ch, 192 kbps [MVO]
✦ Аудио: 48 kHz, E-AC3, 6 ch, 640 kbps [ENG]
Внимание! Раздача ведётся путём добавления новых серий; при каждом добавлении создётся новый торрент. Чтобы начать докачку новой серии, пользователям необходимо сделать следующее: (1) остановить скачивание, (2) удалить старый торрент у себя из клиента (старые серии удалять не надо), (3) скачать новый торрент и запустить его у себя в клиенте вместо старого, при этом указать клиенту путь в старую папку куда и должно происходить скачивание новых серий.
Ваш клиент при этом должен произвести хеширование (проверку) старой папки (если не производит сам - помогите ему сделать это), и будет докачивать только те серии которых у вас ещё нет. Старые серии при этом не удаляются, а продолжают раздаваться!
Eсли вы уже удалили старые серии, то предотвратить повторную закачку старых серий можно, отжав галочку в соответсвующих местах при запуске нового торрента.
Format : Matroska
Format version : Version 4 / Version 2
File size : 1.05 GiB
Duration : 42 min 59 s
Overall bit rate mode : Variable
Overall bit rate : 3 496 kb/s
Encoded date : UTC 2017-09-25 10:12:19
Writing application : mkvmerge v15.0.0 ('Duel with the Devil') 64-bit
Writing library : libebml v1.3.5 + libmatroska v1.4.5

Video
ID : 1
Format : AVC
Format/Info : Advanced Video Codec
Format profile : High@L3.1
Format settings, CABAC : Yes
Format settings, RefFrames : 5 frames
Codec ID : V_MPEG4/ISO/AVC
Duration : 42 min 59 s
Bit rate mode : Variable
Bit rate : 2 470 kb/s
Maximum bit rate : 4 500 kb/s
Width : 1 280 pixels
Height : 720 pixels
Display aspect ratio : 16:9
Frame rate mode : Constant
Frame rate : 23.976 (24000/1001) FPS
Color space : YUV
Chroma subsampling : 4:2:0
Bit depth : 8 bits
Scan type : Progressive
Bits/(Pixel*Frame) : 0.112
Stream size : 759 MiB (71%)
Default : Yes
Forced : No
Color range : Limited
Color primaries : BT.709
Transfer characteristics : BT.709
Matrix coefficients : BT.709

Audio #1
ID : 2
Format : AC-3
Format/Info : Audio Coding 3
Format settings, Endianness : Big
Codec ID : A_AC3
Duration : 42 min 59 s
Bit rate mode : Constant
Bit rate : 384 kb/s
Channel(s) : 2 channels
Channel positions : Front: L R
Sampling rate : 48.0 kHz
Frame rate : 31.250 FPS (1536 SPF)
Bit depth : 16 bits
Compression mode : Lossy
Stream size : 118 MiB (11%)
Title : Gears Media
Language : Russian
Service kind : Complete Main
Default : Yes
Forced : Yes

Audio #2
ID : 3
Format : E-AC-3
Format/Info : Enhanced Audio Coding 3
Format settings, Endianness : Big
Codec ID : A_EAC3
Duration : 42 min 59 s
Bit rate mode : Constant
Bit rate : 640 kb/s
Channel(s) : 6 channels
Channel positions : Front: L C R, Side: L R, LFE
Sampling rate : 48.0 kHz
Frame rate : 187.500 FPS (256 SPF)
Compression mode : Lossy
Stream size : 197 MiB (18%)
Language : English
Service kind : Complete Main
Default : No
Forced : No



Скачать Готэм.Gotham.(Сезон.04.серии.01-16.из.22).(Дэнни.Кэннон.Т.Дж.Скотт.Дермотт.Даунс).[2017-2018.фантастика.боевик.триллер.драма.криминал.детектив.WEB-DL].[720p].[DVO].(Gears.Media).torrent без регистрации
Золото ЗОЛОТАЯ РАЗДАЧА! СКАЧАННОЕ НЕ ЗАСЧИТЫВАЕТСЯ! Золото
Дата: Зарегистрирован   [ Тип: внутренний ] Как тут cкачать?
MAGNET ссылка
MAGNET ссылка


Скачать .torrent

42 KB

Статус: проверено DHT
Скачан: торрент - 65 раз, раздача полностью - 1 раз
Размер: 15,99 GB
Оценка:  - (Голосов: 0)
Поблагодарили: 0
Поделиться ссылкой на эту раздачу с друзьями:
В контактеFacebookОдноклассникиTwitterLivejournalМой МирLiveinternet
 

 

leon030982

[] 

Торент перезалит!Заменен перевод
 
Показать сообщения:    


Вы не можете начинать темы
Вы не можете отвечать на сообщения
Вы не можете редактировать свои сообщения
Вы не можете удалять свои сообщения
Вы не можете голосовать в опросах
Вы не можете прикреплять файлы к сообщениям
Вы можете скачивать файлы