Loading...
Error

Скачать Гадкий я 3 / Despicable Me 3 (Кайл Балда и др.) [2017, мультфильм, фантастика, боевик, комедия, приключения, семейный, BDRip-HEVC] [720р] [Dub (лицензия iTunes)]+[Eng] торрент без регистрации

Статистика раздачи
Размер:  1,52 GB   |    Скачан:  216 раз
Сидов:  1  [  0 KB/s  ]  
 
 
 
Автор Сообщение

МихаНЕзатор

[] 

Информация о фильме
Название: Гадкий я 3
Оригинальное название: Despicable Me 3
Год выхода: 2017
Жанр: Мультфильм, фантастика, комедия, приключения, семейный
Режиссер: Эрик Гуильон, Кайл Балда, Пьер Коффан

В ролях: Стив Карелл, Кристен Уиг, Трей Паркер, Миранда Косгров, Дэна Гайер, Пьер Коффан, Стив Кугэн, Джули Эндрюс, Дженни Слейт

О фильме: Грядет третье пришествие. Многодетный суперагент, роковая красотка и бессмертные миньоны на подходе. Готовьтесь. Они будут править миром.



Страна: США
Студия: Illumination Entertainment, Universal Pictures
Продолжительность: 01:29:40
Перевод: Дубляж [iTunes]

Файл
Кодек: H.265
Качество: BDRip HEVC-10bit 720р от SuperMin
Видео: 1280x536 (2.40:1), 1402 kbps, 23.976 fps
Звук: Русский (AC3, 6 ch, 384 Кбит/с)
Субтитры: английские

АНОНСЫ ПОПУЛЯРНЫХ РАЗДАЧ
General
Unique ID : 215381315206102057740214017530888503978 (0xA208EEB47FB43BF586C4D36D7D00C2AA)
Complete name : E:МУЛЬТЫГадкий я 3.2017.x265.BDRip.HEVC-10bit.720p.DUB.mkv
Format : Matroska
Format version : Version 4 / Version 2
File size : 1.52 GiB
Duration : 1 h 29 min
Overall bit rate : 2 428 kb/s
Movie name : Гадкий я 3 / Despicable Me 3 (2017) - #LORDKILL#
Encoded date : UTC 2017-09-27 17:16:29
Writing application : mkvmerge v9.5.0 ('Quiet Fire') 64bit
Writing library : libebml v1.3.4 + libmatroska v1.4.5

Video
ID : 1
Format : HEVC
Format/Info : High Efficiency Video Coding
Format profile : Main 10@L5@High
Codec ID : V_MPEGH/ISO/HEVC
Duration : 1 h 29 min
Bit rate : 1 402 kb/s
Width : 1 280 pixels
Height : 536 pixels
Display aspect ratio : 2.40:1
Frame rate mode : Constant
Frame rate : 23.976 (24000/1001) FPS
Original frame rate : 23.976 (23976/1000) FPS
Color space : YUV
Chroma subsampling : 4:2:0
Bit depth : 10 bits
Bits/(Pixel*Frame) : 0.085
Stream size : 899 MiB (58%)
Writing library : x265 2.0+48-dad8b32c68d44c92:[Windows][GCC 6.1.0][64 bit] 10bit: KG7x [x265.ru]
Encoding settings : wpp / ctu=64 / min-cu-size=8 / max-tu-size=32 / tu-intra-depth=1 / tu-inter-depth=1 / me=2 / subme=6 / merange=57 / rect / amp / max-merge=2 / temporal-mvp / no-early-skip / rskip / rdpenalty=0 / no-tskip / no-tskip-fast / strong-intra-smoothing / no-lossless / no-cu-lossless / no-constrained-intra / no-fast-intra / no-open-gop / no-temporal-layers / interlace=0 / keyint=240 / min-keyint=23 / scenecut=40 / rc-lookahead=20 / lookahead-slices=0 / bframes=8 / bframe-bias=0 / b-adapt=2 / ref=5 / limit-refs=3 / no-limit-modes / weightp / no-weightb / aq-mode=1 / qg-size=32 / aq-strength=2.00 / cbqpoffs=0 / crqpoffs=0 / rd=3 / psy-rd=2.00 / rdoq-level=0 / psy-rdoq=0.00 / log2-max-poc-lsb=8 / no-rd-refine / signhide / deblock=0:0 / sao / no-sao-non-deblock / b-pyramid / cutree / no-intra-refresh / rc=crf / crf=22.0 / qcomp=0.60 / qpmin=0 / qpmax=69 / qpstep=4 / vbv-maxrate=100000 / vbv-bufsize=100000 / crf-max=0.0 / ipratio=1.40 / pbratio=1.30
Default : Yes
Forced : No

Audio #1
ID : 2
Format : AC-3
Format/Info : Audio Coding 3
Mode extension : CM (complete main)
Format settings, Endianness : Big
Codec ID : A_AC3
Duration : 1 h 29 min
Bit rate mode : Constant
Bit rate : 384 kb/s
Channel(s) : 6 channels
Channel positions : Front: L C R, Side: L R, LFE
Sampling rate : 48.0 kHz
Frame rate : 31.250 FPS (1536 spf)
Bit depth : 16 bits
Compression mode : Lossy
Stream size : 246 MiB (16%)
Title : iTunes
Language : Russian
Default : Yes
Forced : No

Audio #2
ID : 3
Format : AC-3
Format/Info : Audio Coding 3
Mode extension : CM (complete main)
Format settings, Endianness : Big
Codec ID : A_AC3
Duration : 1 h 29 min
Bit rate mode : Constant
Bit rate : 640 kb/s
Channel(s) : 6 channels
Channel positions : Front: L C R, Side: L R, LFE
Sampling rate : 48.0 kHz
Frame rate : 31.250 FPS (1536 spf)
Bit depth : 16 bits
Compression mode : Lossy
Stream size : 410 MiB (26%)
Title : Original
Language : English
Default : No
Forced : No

Text
ID : 4
Format : UTF-8
Codec ID : S_TEXT/UTF8
Codec ID/Info : UTF-8 Plain Text
Duration : 1 h 21 min
Bit rate : 108 b/s
Count of elements : 1527
Stream size : 64.7 KiB (0%)
Title : SDH Colored
Language : English
Default : No
Forced : No

Menu
00:00:00.000 : en:00:00:00.000
00:03:06.103 : en:00:03:06.103
00:07:57.977 : en:00:07:57.977
00:11:12.839 : en:00:11:12.839
00:16:15.766 : en:00:16:15.766
00:20:07.498 : en:00:20:07.498
00:24:07.988 : en:00:24:07.988
00:28:57.069 : en:00:28:57.069
00:32:55.348 : en:00:32:55.348
00:39:01.839 : en:00:39:01.839
00:42:44.187 : en:00:42:44.187
00:46:47.179 : en:00:46:47.179
00:50:55.636 : en:00:50:55.636
00:56:12.077 : en:00:56:12.077
01:00:02.265 : en:01:00:02.265
01:05:41.229 : en:01:05:41.229
01:10:14.544 : en:01:10:14.544
01:14:33.761 : en:01:14:33.761
01:19:29.723 : en:01:19:29.723
01:21:56.995 : en:01:21:56.995



Скачать Гадкий.я.3.Despicable.Me.3.(Кайл.Балда.и.др.).[2017.мультфильм.фантастика.боевик.комедия.приключения.семейный.BDRip-HEVC].[720р].[Dub.(лицензия.iTunes)]+[Eng].torrent без регистрации
Золото ЗОЛОТАЯ РАЗДАЧА! СКАЧАННОЕ НЕ ЗАСЧИТЫВАЕТСЯ! Золото
Дата: Зарегистрирован   [ Тип: внутренний ] Как тут cкачать?
MAGNET ссылка
MAGNET ссылка


Скачать .torrent

16 KB

Статус: проверено DHT
Скачан: торрент - 216 раз, раздача полностью - 314 раз
Размер: 1,52 GB
Оценка:  5 (Голосов: 1)
Поблагодарили: 7
Поделиться ссылкой на эту раздачу с друзьями:
В контактеFacebookОдноклассникиTwitterLivejournalМой МирLiveinternet
 

 
Показать сообщения:    


Вы не можете начинать темы
Вы не можете отвечать на сообщения
Вы не можете редактировать свои сообщения
Вы не можете удалять свои сообщения
Вы не можете голосовать в опросах
Вы не можете прикреплять файлы к сообщениям
Вы можете скачивать файлы