Loading...
Error

Скачать Спаун / Spawn (Марк А.З. Диппе) [1997, Фантастика, BDRip] [720p] [MVO+DVOx3] [Режисс.версия] [R.G. GoldenShara] торрент без регистрации

Статистика раздачи
Размер:  3,94 GB   |    Скачан:  151 раз

Полного источника не было: 8 часов

 
 
 
Автор Сообщение

LORDKILL

[] 


Спаун / Spawn


Год выпуска: 1997
Выпущено: США, New Line Cinema
Жанр: Фантастика
Продолжительность: 01:38:29
Перевод: Профессиональный (многоголосый) «Киномания» + Профессиональный (двухголосый закадровый) Юниверсал, "Союз-Видео", ИНИС
Субтитры: Русские, английские

Режиссер: Марк А.З. Диппе

В ролях: Джон Легуизамо, Тереза Рэндл, Майкл Дж. Уайт, Мартин Шин, Мелинда Кларк, Д. Б. Суини, Никол Уильямсон, Мико Хьюз, Майкл Пападжон, Робиа ЛаМорте, Джон Котрэн мл., Тони Хейни, Дэррил Уоррен, Крис Коппола, Майк Акрави

Описание: «Краповый берет» Эл Симмонс убит своим начальником во время выполнения очередной миссии. Попав в чистилище, он заключает сделку с Дьяволом. Сатана дает ему силу, доспехи и оружие.В обмен на то, чтобы еще раз увидеть свою жену, Симмонс должен предварить приход сил Зла на Землю. Оказавшись на свободе, он разрывает контракт в одностороннем порядке…







Качество: BDRip 720p
Формат: MKV
Видео кодек: H.264
Аудио кодек: AC3
Видео: 1280x720 (16:9), 4439 kbps, 23.976 fps
Аудио:Русский (AC-3, 6ch, 448 kbps) - «Киномания»
Русский (AC-3, 2ch, 192 kbps) - "Союз-Видео"
Русский (AC-3, 2ch, 192 kbps) - Юниверсал
Русский (AC-3, 6ch, 448 kbps) - ИНИС
x264 [info]: frame I:1218 Avg QP:17.32 size:118326
x264 [info]: frame P:37320 Avg QP:19.07 size: 46207
x264 [info]: frame B:103241 Avg QP:22.25 size: 13682
x264 [info]: consecutive B-frames: 4.4% 6.0% 15.8% 20.8% 19.0% 29.7% 3.2% 0.7% 0.4%
x264 [total]: encoded 141779 frames, 3.70 fps, 4438.83 kb/s
General
Unique ID : 180251860599647909260721161299051806458 (0x879B3EDEB9FFB640BF6CFE80AE6DFEFA)
Complete name : F:\ФИЛЬМЫ\Спаун.(Режисс.версия).1997.x264.BDRip.720p.MVO+DVOx3.mkv
Format : Matroska
Format version : Version 4 / Version 2
File size : 3.94 GiB
Duration : 1 h 38 min
Overall bit rate : 5 717 kb/s
Movie name : Спаун / Spawn (1997) - #LORDKILL#
Encoded date : UTC 2017-08-09 08:26:36
Writing application : mkvmerge v9.5.0 ('Quiet Fire') 64bit
Writing library : libebml v1.3.4 + libmatroska v1.4.5

Video
ID : 1
Format : AVC
Format/Info : Advanced Video Codec
Format profile : High@L4.1
Format settings, CABAC : Yes
Format settings, ReFrames : 9 frames
Codec ID : V_MPEG4/ISO/AVC
Duration : 1 h 38 min
Bit rate : 4 439 kb/s
Width : 1 280 pixels
Height : 720 pixels
Display aspect ratio : 16:9
Frame rate mode : Constant
Frame rate : 23.976 (24000/1001) FPS
Color space : YUV
Chroma subsampling : 4:2:0
Bit depth : 8 bits
Scan type : Progressive
Bits/(Pixel*Frame) : 0.201
Stream size : 3.06 GiB (78%)
Writing library : x264 core 146 r2538 121396c
Encoding settings : cabac=1 / ref=9 / deblock=1:-3:-3 / analyse=0x3:0x113 / me=umh / subme=11 / psy=1 / psy_rd=1.00:0.10 / mixed_ref=1 / me_range=64 / chroma_me=1 / trellis=2 / 8x8dct=1 / cqm=0 / deadzone=21,11 / fast_pskip=0 / chroma_qp_offset=-3 / threads=12 / lookahead_threads=2 / sliced_threads=0 / nr=0 / decimate=1 / interlaced=0 / bluray_compat=0 / constrained_intra=0 / bframes=8 / b_pyramid=2 / b_adapt=2 / b_bias=0 / direct=1 / weightb=1 / open_gop=0 / weightp=2 / keyint=240 / keyint_min=23 / scenecut=40 / intra_refresh=0 / rc=crf / mbtree=0 / crf=19.5 / qcomp=0.60 / qpmin=0 / qpmax=69 / qpstep=4 / ip_ratio=1.40 / pb_ratio=1.30 / aq=1:1.00
Language : English
Default : Yes
Forced : No

Audio #1
ID : 2
Format : AC-3
Format/Info : Audio Coding 3
Mode extension : CM (complete main)
Format settings, Endianness : Big
Codec ID : A_AC3
Duration : 1 h 38 min
Bit rate mode : Constant
Bit rate : 448 kb/s
Channel(s) : 6 channels
Channel positions : Front: L C R, Side: L R, LFE
Sampling rate : 48.0 kHz
Frame rate : 31.250 FPS (1536 spf)
Bit depth : 16 bits
Compression mode : Lossy
Stream size : 316 MiB (8%)
Title : MVO - «Киномания»
Language : Russian
Default : No
Forced : No

Audio #2
ID : 3
Format : AC-3
Format/Info : Audio Coding 3
Mode extension : CM (complete main)
Format settings, Endianness : Big
Codec ID : A_AC3
Duration : 1 h 38 min
Bit rate mode : Constant
Bit rate : 192 kb/s
Channel(s) : 2 channels
Channel positions : Front: L R
Sampling rate : 48.0 kHz
Frame rate : 31.250 FPS (1536 spf)
Bit depth : 16 bits
Compression mode : Lossy
Delay relative to video : 24 ms
Stream size : 135 MiB (3%)
Title : DVO - "Союз-Видео"
Language : Russian
Default : No
Forced : No

Audio #3
ID : 4
Format : AC-3
Format/Info : Audio Coding 3
Mode extension : CM (complete main)
Format settings, Endianness : Big
Codec ID : A_AC3
Duration : 1 h 38 min
Bit rate mode : Constant
Bit rate : 192 kb/s
Channel(s) : 2 channels
Channel positions : Front: L R
Sampling rate : 48.0 kHz
Frame rate : 31.250 FPS (1536 spf)
Bit depth : 16 bits
Compression mode : Lossy
Delay relative to video : 27 ms
Stream size : 135 MiB (3%)
Title : DVO - Юниверсал
Language : Russian
Default : Yes
Forced : No

Audio #4
ID : 5
Format : AC-3
Format/Info : Audio Coding 3
Mode extension : CM (complete main)
Format settings, Endianness : Big
Codec ID : A_AC3
Duration : 1 h 38 min
Bit rate mode : Constant
Bit rate : 448 kb/s
Channel(s) : 6 channels
Channel positions : Front: L C R, Side: L R, LFE
Sampling rate : 48.0 kHz
Frame rate : 31.250 FPS (1536 spf)
Bit depth : 16 bits
Compression mode : Lossy
Delay relative to video : 5 ms
Stream size : 316 MiB (8%)
Title : DVO - ИНИС
Language : Russian
Default : No
Forced : No

Text #1
ID : 6
Format : UTF-8
Codec ID : S_TEXT/UTF8
Codec ID/Info : UTF-8 Plain Text
Duration : 1 h 30 min
Bit rate : 73 b/s
Count of elements : 998
Stream size : 48.6 KiB (0%)
Language : Russian
Default : No
Forced : No

Text #2
ID : 7
Format : UTF-8
Codec ID : S_TEXT/UTF8
Codec ID/Info : UTF-8 Plain Text
Duration : 1 h 38 min
Bit rate : 52 b/s
Count of elements : 1211
Stream size : 37.4 KiB (0%)
Language : English
Default : No
Forced : No





Скачать Спаун.Spawn.(Марк.А.З.Диппе).[1997.Фантастика.BDRip].[720p].[MVO+DVOx3].[Режисс.версия].[R.G.GoldenShara].torrent без регистрации
Золото ЗОЛОТАЯ РАЗДАЧА! СКАЧАННОЕ НЕ ЗАСЧИТЫВАЕТСЯ! Золото
Дата: Зарегистрирован   [ Тип: внутренний ] Как тут cкачать?
MAGNET ссылка
MAGNET ссылка


Скачать .torrent

20 KB

Статус: проверено
Скачан: торрент - 151 раз, раздача полностью - 93 раз
Размер: 3,94 GB
Оценка:  5 (Голосов: 2)
Поблагодарили: 5
Поделиться ссылкой на эту раздачу с друзьями:
В контактеFacebookОдноклассникиTwitterLivejournalМой МирLiveinternet
 

 

LORDKILL

[] 

ТОРРЕНТ ОБНОВЛЕН! Приятного просмотра!
 

gothvall

[] 

В свое время фильм был огонь, посмотрю еще разок. Спасибо!
 
Показать сообщения:    


Вы не можете начинать темы
Вы не можете отвечать на сообщения
Вы не можете редактировать свои сообщения
Вы не можете удалять свои сообщения
Вы не можете голосовать в опросах
Вы не можете прикреплять файлы к сообщениям
Вы можете скачивать файлы