Loading...
Error

Скачать Призраки / Припризнутые / Ghosted (Сезон 01, серия 01-05 из 13) (Джонатан Крисел) [2017, Комедия, WEB-DL] [720p] [MVO] (Кубик в Кубе) + [Orig] (Eng) торрент без регистрации

Статистика раздачи
Размер:  3,13 GB   |    Скачан:  10 раз
Сидов:  1  [  0 KB/s  ]  
 
 
 
Автор Сообщение

leon030982

[] 


Призраки / Припризнутые / Ghosted



Год выпуска: 2017
Страна: США
Жанр: Комедия
Продолжительность: ~ 00:24:00
Перевод: Профессиональный (двухголосый, закадровый) | *Кубик в Кубе*
Субтитры: English

Режиссёр: Джонатан Крисел

В ролях: Адам Скотт, Крэйг Робинсон, Эди Паттерсон, Сара Бэйкер, Кристиан Кэллоуэй, Адиль Ахтар, Линк Хэнд, Тиша Френч, Этан Дрэйк Дэвис

Описание: Сериал рассказывает о невероятном сотрудничестве двух непохожих людей в раскрытии необъяснимых явлений, которые происходят на улицах Лос-Анджелеса.



Релиз --
Работа со звуком: messafan

Качество: WEB-DL 720p
Формат: MKV
Видео: 1280x720 at 23.976 fps, MPEG-4 AVC, ~ 3100 Kbps
Аудио: 48 kHz, AC3, 3/2 (L,C,R,l,r) + LFE ch, ~384.00 kbps avg |KvK|
Аудио: 48 kHz, EAC3, 3/2 (L,C,R,l,r) + LFE ch, ~640.00 kbps avg |ENG|

Добавлена 5-я серия!
General
Unique ID : 175806581406647562843998649645894059878 (0x84431DAF3C7474F3BABEA7C3DF21C766)
Complete name : E:\Ghosted.S01.720p.WEB.KvK.CasStudio.TV\Ghosted.S01E01.Pilot.720p.WEB-DL.KvK.CasStudio.TV.mkv
Format : Matroska
Format version : Version 4 / Version 2
File size : 710 MiB
Duration : 23mn 56s
Overall bit rate mode : Variable
Overall bit rate : 4 147 Kbps
Movie name : Ghosted 01x01 (Pilot) - release by messafan for CasStudio.TV
Encoded date : UTC 2017-10-02 00:18:54
Writing application : mkvmerge v6.7.0 ('Back to the Ground') 64bit built on Jan 8 2014 15:10:52
Writing library : libebml v1.3.0 + libmatroska v1.4.1

Video
ID : 1
Format : AVC
Format/Info : Advanced Video Codec
Format profile : High@L3.1
Format settings, CABAC : Yes
Format settings, ReFrames : 5 frames
Codec ID : V_MPEG4/ISO/AVC
Duration : 23mn 56s
Bit rate mode : Variable
Bit rate : 3 040 Kbps
Maximum bit rate : 4 500 Kbps
Width : 1 280 pixels
Height : 720 pixels
Display aspect ratio : 16:9
Frame rate mode : Constant
Frame rate : 23.976 fps
Color space : YUV
Chroma subsampling : 4:2:0
Bit depth : 8 bits
Scan type : Progressive
Bits/(Pixel*Frame) : 0.138
Stream size : 521 MiB (73%)
Default : Yes
Forced : No
Color range : Limited
Color primaries : BT.709
Transfer characteristics : BT.709
Matrix coefficients : BT.709

Audio #1
ID : 2
Format : AC-3
Format/Info : Audio Coding 3
Mode extension : CM (complete main)
Format settings, Endianness : Big
Codec ID : A_AC3
Duration : 23mn 56s
Bit rate mode : Constant
Bit rate : 384 Kbps
Channel(s) : 6 channels
Channel positions : Front: L C R, Side: L R, LFE
Sampling rate : 48.0 KHz
Compression mode : Lossy
Stream size : 65.8 MiB (9%)
Title : KvK 5.1
Language : Russian
Default : Yes
Forced : No

Audio #2
ID : 3
Format : E-AC-3
Format/Info : Audio Coding 3
Format settings, Endianness : Big
Codec ID : A_EAC3
Duration : 23mn 56s
Bit rate mode : Constant
Bit rate : 640 Kbps
Channel(s) : 6 channels
Channel positions : Front: L C R, Side: L R, LFE
Sampling rate : 48.0 KHz
Compression mode : Lossy
Stream size : 110 MiB (15%)
Title : English EAC3 5.1 @ 640kbps
Language : English
Default : No
Forced : No

Text
ID : 4
Format : UTF-8
Codec ID : S_TEXT/UTF8
Codec ID/Info : UTF-8 Plain Text
Title : Eng sub
Language : English
Default : No
Forced : No
Когда раздача ведётся путём добавления новых серий, при каждом добавлении создётся новый торрент. Чтобы начать докачку новой серии, пользователям необходимо сделать следующее:
(1) остановить скачивание,
(2) удалить старый торрент у себя из клиента (старые серии удалять не надо),
(3) скачать новый торрент и запустить его у себя в клиенте вместо старого, при этом указать клиенту путь в старую папку, куда и должно происходить скачивание новых серий.
Ваш клиент при этом должен произвести хеширование (проверку) старой папки (если не производит сам - помогите ему сделать это), и будет докачивать только те серии, которых у вас ещё нет. Старые серии при этом не удаляются, а продолжают раздаваться!
Eсли вы уже удалили старые серии, то предотвратить повторную закачку старых серий можно, отжав галочку в соответсвующих местах при запуске нового торрента. По возможности, желательно не удалять старые серии как можно дольше, чтобы релизёр не столько продолжал раздавать старые серии, а смог сконцентрироваться на новых.



Скачать Призраки.Припризнутые.Ghosted.(Сезон.01.серия.01-05.из.13).(Джонатан.Крисел).[2017.Комедия.WEB-DL].[720p].[MVO].(Кубик.в.Кубе).+.[Orig].(Eng).torrent без регистрации
Золото ЗОЛОТАЯ РАЗДАЧА! СКАЧАННОЕ НЕ ЗАСЧИТЫВАЕТСЯ! Золото
Дата: Зарегистрирован   [ Тип: внутренний ] Как тут cкачать?
MAGNET ссылка
MAGNET ссылка


Скачать .torrent

17 KB

Статус: проверено DHT
Скачан: торрент - 10 раз, раздача полностью - 1 раз
Размер: 3,13 GB
Оценка:  - (Голосов: 0)
Поблагодарили: 1
Поделиться ссылкой на эту раздачу с друзьями:
В контактеFacebookОдноклассникиTwitterLivejournalМой МирLiveinternet
 

 
Показать сообщения:    


Вы не можете начинать темы
Вы не можете отвечать на сообщения
Вы не можете редактировать свои сообщения
Вы не можете удалять свои сообщения
Вы не можете голосовать в опросах
Вы не можете прикреплять файлы к сообщениям
Вы можете скачивать файлы