Loading...
Error

Скачать Я, Франциск Скорина... (Борис Степанов) [1969, историко-биографический, DVB] торрент без регистрации

Статистика раздачи
Размер:  1,85 GB   |    Скачан:  22 раза
Сидов:  1  [  0 KB/s  ]  
 
 
 
Автор Сообщение

Marsianka

[] 

Информация о фильме
Название: Я, Франциск Скорина...
Год выхода: 1969
Жанр: историко-биографический
Режиссер: Борис Степанов
В ролях: Олег Янковский, Николай Гриценко, Гедиминас Карка, Гунта Виркава, Янис Грантиньш, Ростислав Янковский, Борис Гитин, Алексей Барановский, Юрий Багинян, Всеволод Былинский, Владимир Дедюшко, Александра Зимина, Мария Захаревич, Николай Табашников-Зорин, Стефания Станюта, Светлана Турова, Абрам Треппель, Владимир Цоппи, Аркадий Трусов, Эдуард Кузора, Стяпас Юкна, Юозас Канопка, Владимир Золотухин, Тамара Муженко, Арнольд Помазан, Здислав Стомма, Юрий Смирнов.

О фильме:
Историко-биографический фильм о белорусском издателе и просветителе Франциске (Георгие) Скорине, жившем в первой половине XVI века, основателе первой белорусской типографии в Вильнюсе, авторе фундаментальных исследований в области лингвистики.

Фильм насыщен историческими планами и красивыми натурными съемками.


Сценарист: Николай Садкович
Оператор: Виталий Николаев
Композитор: Владимир Чередниченко
Художник: Владимир Дементьев
Производство: Беларусьфильм
Премьера: 30 ноября 1970

Диплом жюри ВКФ в Минске (1970) за плодотворную разработку исторической темы и изобразительное решение.

31 января 1927, Петропавловск, Казахстан — 1992.
Режиссёр, сценарист. Заслуженный деятель искусств Белорусской ССР.

Окончил Северо-Казахстанский механический техникум (1946), режиссёрский факультет ВГИКа (1956, мастерская Г. Козинцева и С. Скворцова).
До учёбы во ВГИКе работал конструктором в конструкторских бюро Ленинграда и Петропавловска. Творческую деятельность начинал как режиссер-документалист (фильм «Народные умельцы», выпуски киножурнала «Пионерия», сюжеты в киножурналах «Советская Белоруссия», «Пионер Белоруссии»).

Режиссёр:
1993 Аз воздам (Белоруссия - Польша)
1987 Государственная граница. Фильм 6: "За порогом победы"
1984 Государственная граница. Фильм 4: "Красный песок"
1982 Государственная граница. Фильм 3: "Восточный рубеж"
1980 Государственная граница. Фильм 2: "Мирное лето 21-го года..."
1980 Государственная граница. Фильм 1: "Мы наш, мы новый..."
1977 Гарантирую жизнь
1975 Волчья стая
1973 Облака
1971 Батька
1969 Я, Франциск Скорина
1965 Альпийская баллада
1963 Последний хлеб
1961 Рассказы о юности (киноальманах)

Сценарист:
1993 Аз воздам (Белоруссия - Польша)
Скорина Франциск (Франтишак)
(1490 - 1551)



Белорусский первопечатник, мыслитель-гуманист эпохи Возрождения.
Родился в Полоцке, учился здесь же, затем в Краковском и Падуанском университетах. Бакалавр философии, доктор медицины, имел также степень доктора вольных наук. В Праге создал первую белорусскую типографию. Перевел, прокомментировал, а в 1517-1519 издал 23 книги Библии. Около 1521 создал новую типографию в Вильне, где издал «Малую подорожную книжицу» (ок. 1522), а в 1525 опубликовал «Апостол». Около 1535 уехал в Прагу. Рассматривал Библию как итог многовекового опыта человечества и средство приобщения людей к знаниям. Анализ взглядов Скорины позволяет предполагать, что он исходил из возможности прямого и интимного диалога человека с Богом посредством Библии. Мировоззрение Скорины представляет собой синтез христианских, античных и гуманистических идей Возрождения, отличается веротерпимостью. В центре его внимания - проблемы человека (смысл жизни, духовность, добро и т.д.). Этика Скорины ориентирует на общественно значимую земную жизнь, морально-интеллектуальное усовершенствование, служение добру. Служение Богу проявляется через служение людям.
Запись потока *.ts с наземного цифрового телеканала "ОНТ".
Во время трансляции присутствуют анонсы (см скрин)




Страна: СССР, Белорусская ССР
Студия: Беларусьфильм
Продолжительность: 01:36:02
Перевод: не требует

Файл
Кодек: AVC (H264)
Качество: DVB
Видео: MPEG4 Video (H264) 720(1047)x576 (16:9) 25fps, 2 360 kb/s
Звук: MPEG Audio 48000Hz stereo 256kbps

Семпл

General
ID : 1 (0x1)
Complete name : D:Новая земля 2Художественные фильмыЯ, Франциск Скорина (1969)Я, Франциск Скорина...(1969).ts
Format : MPEG-TS
File size : 1.85 GiB
Duration : 1 h 36 min
Overall bit rate mode : Variable
Overall bit rate : 2 755 kb/s

Video
ID : 301 (0x12D)
Menu ID : 3 (0x3)
Format : AVC
Format/Info : Advanced Video Codec
Format profile : Main@L3
Format settings, CABAC : Yes
Format settings, ReFrames : 4 frames
Format settings, GOP : M=4, N=24
Codec ID : 27
Duration : 1 h 36 min
Bit rate : 2 360 kb/s
Width : 720 pixels
Height : 576 pixels
Display aspect ratio : 16:9
Frame rate : 25.000 FPS
Standard : PAL
Color space : YUV
Chroma subsampling : 4:2:0
Bit depth : 8 bits
Scan type : MBAFF
Scan type, store method : Interleaved fields
Scan order : Top Field First
Bits/(Pixel*Frame) : 0.228
Stream size : 1.58 GiB (86%)
Color range : Limited
Color primaries : BT.601 PAL
Transfer characteristics : BT.470 System B, BT.470 System G
Matrix coefficients : BT.601

Audio
ID : 302 (0x12E)
Menu ID : 3 (0x3)
Format : MPEG Audio
Format version : Version 1
Format profile : Layer 2
Codec ID : 3
Duration : 1 h 36 min
Bit rate mode : Constant
Bit rate : 256 kb/s
Channel(s) : 2 channels
Sampling rate : 48.0 kHz
Compression mode : Lossy
Stream size : 176 MiB (9%)
Language : English



Скачать Я.Франциск.Скорина.(Борис.Степанов).[1969.историко-биографический.DVB].torrent без регистрации
Золото ЗОЛОТАЯ РАЗДАЧА! СКАЧАННОЕ НЕ ЗАСЧИТЫВАЕТСЯ! Золото
Дата: Зарегистрирован   [ Тип: внутренний ] Как тут cкачать?
MAGNET ссылка
MAGNET ссылка


Скачать .torrent

21 KB

Статус: проверено DHT
Скачан: торрент - 22 раз, раздача полностью - 0 раз
Размер: 1,85 GB
Оценка:  - (Голосов: 0)
Поблагодарили: 0
Поделиться ссылкой на эту раздачу с друзьями:
В контактеFacebookОдноклассникиTwitterLivejournalМой МирLiveinternet
 

 
Показать сообщения:    


Вы не можете начинать темы
Вы не можете отвечать на сообщения
Вы не можете редактировать свои сообщения
Вы не можете удалять свои сообщения
Вы не можете голосовать в опросах
Вы не можете прикреплять файлы к сообщениям
Вы можете скачивать файлы