Loading...
Error

/ The Gifted ( 01, 01-03 10) ( ) [2017, , , WEBRip] [720p] [MVO] (Good People) + [Orig]

3,66 GB   |    :  7
1  [  0 KB/s  ]  

 
 
 

leon030982

[] 

/ The Gifted




: 2017
:
: ,
: ~40 .
: ( ) Good People
:

:

: , , , , , , , .

: , , . , . , . , , . , , , .



: WEBRip 720p
: MKV
: AVC
: AC3, E-AC3
: H264, 1280x720 (16:9), 23.976 fps, ~2500kbps, 0.115 bit/pixel
1: Dolby AC3 48000Hz 5.1 640 Kbps
2: Dolby E-AC3 48000Hz 5.1 640 Kbps

3- !
General
Unique ID : 189316164974705707110371169273037913963 (0x8E6CF794660F1C1FB7E38E8090CEFF6B)
Complete name : The.Gifted.S01E01.eXposed.720p.AMZN.WEB-DL.DD+5.1.H.264-GoodPeople.mkv
Format : Matroska
Format version : Version 2
File size : 1.28 GiB
Duration : 47mn 18s
Overall bit rate mode : Variable
Overall bit rate : 3 888 Kbps
Encoded date : UTC 2017-10-06 02:35:32
Writing application : mkvmerge v5.4.0 ('Piper') built on Mar 10 2012 13:34:39
Writing library : libebml v1.2.3 + libmatroska v1.3.0
DURATION : 00:47:12.898000000
NUMBER_OF_FRAMES : 994
NUMBER_OF_BYTES : 26671
_STATISTICS_WRITING_APP : mkvmerge v15.0.0 ('Duel with the Devil') 64-bit
_STATISTICS_WRITING_DATE_UT : 2017-10-03 07:28:29
_STATISTICS_TAGS : BPS DURATION NUMBER_OF_FRAMES NUMBER_OF_BYTES

Video
ID : 1
Format : AVC
Format/Info : Advanced Video Codec
Format profile : [url=mailto:High@L3.1]High@L3.1[/url]
Format settings, CABAC : Yes
Format settings, ReFrames : 5 frames
Codec ID : V_MPEG4/ISO/AVC
Duration : 47mn 18s
Bit rate mode : Variable
Bit rate : 2 530 Kbps
Maximum bit rate : 4 500 Kbps
Width : 1 280 pixels
Height : 720 pixels
Display aspect ratio : 16:9
Frame rate mode : Constant
Frame rate : 23.976 fps
Color space : YUV
Chroma subsampling : 4:2:0
Bit depth : 8 bits
Scan type : Progressive
Bits/(Pixel*Frame) : 0.115
Stream size : 856 MiB (65%)
Default : Yes
Forced : No
Color range : Limited
Color primaries : BT.709
Transfer characteristics : BT.709
Matrix coefficients : BT.709

Audio #1
ID : 2
Format : AC-3
Format/Info : Audio Coding 3
Mode extension : CM (complete main)
Format settings, Endianness : Big
Codec ID : A_AC3
Duration : 47mn 18s
Bit rate mode : Constant
Bit rate : 640 Kbps
Channel(s) : 6 channels
Channel positions : Front: L C R, Side: L R, LFE
Sampling rate : 48.0 KHz
Compression mode : Lossy
Stream size : 217 MiB (16%)
Language : Russian
Default : Yes
Forced : No

Audio #2
ID : 3
Format : E-AC-3
Format/Info : Audio Coding 3
Format settings, Endianness : Big
Codec ID : A_EAC3
Duration : 47mn 18s
Bit rate mode : Constant
Bit rate : 640 Kbps
Channel(s) : 6 channels
Channel positions : Front: L C R, Side: L R, LFE
Sampling rate : 48.0 KHz
Compression mode : Lossy
Stream size : 217 MiB (16%)
Language : English
Default : No
Forced : No

Text
ID : 4
Format : UTF-8
Codec ID : S_TEXT/UTF8
Codec ID/Info : UTF-8 Plain Text
Language : English
Default : No
Forced : No
! ; . , :
.
( ).
, .
() ( - ), . , !
E , , . , , .




.The.Gifted.(.01..01-03..10).(.).[2017...WEBRip].[720p].[MVO].(Good.People).+.[Orig].torrent
  ! ! 
:   [ : ] c?
MAGNET
MAGNET


.torrent

19 KB

: DHT
: - 7 , - 0
: 3,66 GB
- (: 0)
: 0
:
 FacebookTwitterLivejournal Liveinternet
 

 
: