Loading...
Error

. / Philip K. Dick's Electric Dreams ( 01) ( / David Farr) [2017, , WEB-DL] [1080p] [MVO] (Good People) + Original (Eng) + Subs (Eng)

27,86 GB   |    :  32

: 20

 
 
 

leon030982

[] 

. / Philip K. Dick's Electric Dreams
: 2017
: ,
:
: 1x ~01:00:00
: ( ) Good People
:

: / David Farr, / Francesca Gregorini, / Tom Harper

: , , , , , , , .

: . . - , . , . " .", . . , " ", "" " ". , .



: WEB-DL 1080p
: MKV
: AVC
: AC3, E-AC3
: H264, 1920x1280 (16:9), 23.976 fps, ~6100kbps, ~0.121 bit/pixel
1: Dolby AC3 48000Hz 5.1 640Kbps, 3 : Dolby AC3 48000Hz stereo 224Kbps
2: Dolby E-AC3 48000Hz 5.1 640Kbps, 3 : Dolby E-AC3 48000Hz stereo 224Kbps ()

7-10- !
General
Unique ID : 185129568539867925370753120624894541138 (0x8B46A8705835ABF79AD74E31E983FD52)
Complete name : Philip.K.Dicks.Electric.Dreams.S01E01.The.Hood.Maker.1080p.STAN.WEB-DL.DDP5.1.H.264-GoodPeople.mkv
Format : Matroska
Format version : Version 2
File size : 2.76 GiB
Duration : 54mn 20s
Overall bit rate : 7 262 Kbps
Encoded date : UTC 2017-10-09 17:26:03
Writing application : mkvmerge v5.4.0 ('Piper') built on Mar 10 2012 13:34:39
Writing library : libebml v1.2.3 + libmatroska v1.3.0
DURATION : 00:52:42.956000000
NUMBER_OF_FRAMES : 821
NUMBER_OF_BYTES : 23832
_STATISTICS_WRITING_APP : mkvmerge v9.3.1 ('Mask Machine') 64bit
_STATISTICS_WRITING_DATE_UT : 2017-09-18 14:04:34
_STATISTICS_TAGS : BPS DURATION NUMBER_OF_FRAMES NUMBER_OF_BYTES

Video
ID : 1
Format : AVC
Format/Info : Advanced Video Codec
Format profile : High@L4
Format settings, CABAC : Yes
Format settings, ReFrames : 4 frames
Codec ID : V_MPEG4/ISO/AVC
Duration : 54mn 20s
Bit rate : 6 029 Kbps
Width : 1 920 pixels
Height : 1 080 pixels
Display aspect ratio : 16:9
Frame rate mode : Constant
Frame rate : 23.976 fps
Color space : YUV
Chroma subsampling : 4:2:0
Bit depth : 8 bits
Scan type : Progressive
Bits/(Pixel*Frame) : 0.121
Stream size : 2.29 GiB (83%)
Writing library : Zencoder Video Encoding System
Default : Yes
Forced : No

Audio #1
ID : 2
Format : AC-3
Format/Info : Audio Coding 3
Mode extension : CM (complete main)
Format settings, Endianness : Big
Codec ID : A_AC3
Duration : 54mn 20s
Bit rate mode : Constant
Bit rate : 640 Kbps
Channel(s) : 6 channels
Channel positions : Front: L C R, Side: L R, LFE
Sampling rate : 48.0 KHz
Compression mode : Lossy
Stream size : 249 MiB (9%)
Language : Russian
Default : Yes
Forced : No

Audio #2
ID : 3
Format : E-AC-3
Format/Info : Audio Coding 3
Format settings, Endianness : Big
Codec ID : A_EAC3
Duration : 54mn 20s
Bit rate mode : Constant
Bit rate : 448 Kbps
Channel(s) : 6 channels
Channel positions : Front: L C R, Side: L R, LFE
Sampling rate : 48.0 KHz
Compression mode : Lossy
Stream size : 174 MiB (6%)
Language : English
Default : No
Forced : No

Text
ID : 4
Format : UTF-8
Codec ID : S_TEXT/UTF8
Codec ID/Info : UTF-8 Plain Text
Language : English
Default : No
Forced : No
! ; . , :
.
( ).
, .

() ( - ), . , !
E , , . , , .
[url=tracker.php?f=2366,189,842&nm=Electric+dreams+2017]http://rutracker.org/forum/tracker.php?f=2366,189,842&nm=Electric+dreams+2017[/url]



.....Philip.K.Dick's.Electric.Dreams.(.01).(..David.Farr).[2017..WEB-DL].[1080p].[MVO].(Good.People).+.Original.(Eng).+.Subs.(Eng).torrent
  ! ! 
:   [ : ] c?
MAGNET
MAGNET


.torrent

72 KB

: DHT
: - 32 , - 3
: 27,86 GB
- (: 0)
: 1
:
 FacebookTwitterLivejournal Liveinternet
 

 
: