Loading...
Error

Скачать Электрические сны Филипа К. Дика / Philip K. Dick's Electric Dreams (01x01-06 из 10) (Дэвид Фарр) [2017, фантастика, WEB-DL] [1080p] [MVO (Amedia)]+[Eng]+[Sub Rus, Eng] торрент без регистрации

Статистика раздачи
Размер:  13,99 GB   |    Скачан:  10 раз
Сидов:  1  [  0 KB/s  ]  
 
 
 
Автор Сообщение

МихаНЕзатор

[] 

Электрические сны Филипа К. Дика
Philip K. Dick's Electric Dreams


Страна: США, Великобритания
Год выпуска: 2017
Жанр: фантастика
Продолжительность: ~ 00:54:00 серия
Перевод: Многоголосый закадровый, профессиональный Amedia
Премьера (мир): 17 сентября 2017
Режиссер: Дэвид Фарр / David Farr, Франческа Грегорини / Francesca Gregorini, Том Харпер / Tom Harper

В главных ролях: Алена Леуан, Расс Панзарелла, Стив Бушеми, Эсси Дэвис, Ричард Мэдден, Джек Рейнор, Тимоти Сполл, Брайан Крэнстон и др.

Описание фильма: Сериал основан на произведениях культового фантаста Филипа К. Дика. Каждая серия посвящена одному рассказу писателя: «Автофабрика», «Унылый незнакомец», «Проездной билет» и др.



Качество видео: WEB-DL 1080p
Формат: MKV
Видео: MPEG-4 AVC, 1920x1080 [16:9], 23.976 fps, ~ 6100 Kbps
Аудио Rus: AC3, 48 kHz, 2 ch, 192 Kbps |Amedia|
Аудио Eng: EAC3, 48 kHz, 6 ch, 448 Kbps |Original|
Субтитры: Русские (Amedia), английские (SDH)
Реклама: отсутствует

АНОНСЫ ПОПУЛЯРНЫХ РАЗДАЧ


Торрент обновлён, добавлена 6-я серия!

1. Капюшонщик
2. Планета, которой не было
3. Проездной билет
4. Сумасшедший бриллиант
5. Настоящая жизнь
6. Человек — это
Релиз:
Работа со звуком: BenderBEST
Общее
Уникальный идентификатор : 234624790593212576217130073666016269261 (0xB083174B1D4B6C9BAB8E388D694C53CD)
Полное имя : E:\_Сериалы\Электрические сны Филипа\Philip.K.Dicks.Electric.Dreams.S01E01.1080p.WEB-DL.Rus.Eng_CasStudio.mkv
Формат : Matroska
Версия формата : Version 4 / Version 2
Размер файла : 2,59 Гбайт
Продолжительность : 54 м. 20 с.
Общий поток : 6814 Кбит/сек
Дата кодирования : UTC 2017-09-20 07:09:34
Программа кодирования : mkvmerge v6.9.1 ('Blue Panther') 32bit built on Apr 18 2014 18:15:44
Библиотека кодирования : libebml v1.3.0 + libmatroska v1.4.1

Видео
Идентификатор : 1
Формат : AVC
Формат/Информация : Advanced Video Codec
Профиль формата : High@L4
Настройки формата : CABAC / 4 Ref Frames
Параметр CABAC формата : Да
Параметр RefFrames формата : 4 кадра
Идентификатор кодека : V_MPEG4/ISO/AVC
Продолжительность : 54 м. 20 с.
Битрейт : 6038 Кбит/сек
Ширина : 1920 пикселей
Высота : 1080 пикселей
Соотношение сторон : 16:9
Режим частоты кадров : Постоянный
Частота кадров : 23,976 (24000/1001) кадра/сек
Цветовое пространство : YUV
Субдискретизация насыщенности : 4:2:0
Битовая глубина : 8 бит
Тип развёртки : Прогрессивная
Бит/(Пиксели*Кадры) : 0.121
Размер потока : 2,29 Гбайт (89%)
Библиотека кодирования : Zencoder Video Encoding System
Язык : English
Default : Да
Forced : Нет

Аудио #1
Идентификатор : 2
Формат : AC-3
Формат/Информация : Audio Coding 3
Параметр Endianness формата : Big
Идентификатор кодека : A_AC3
Продолжительность : 54 м. 20 с.
Вид битрейта : Постоянный
Битрейт : 192 Кбит/сек
Каналы : 2 канала
Расположение каналов : Front: L R
Частота : 48,0 КГц
Частота кадров : 31,250 кадров/сек (1536 SPF)
Битовая глубина : 16 бит
Метод сжатия : С потерями
Размер потока : 74,6 Мбайт (3%)
Заголовок : AC3 2.0 @ 192 kbps - MVO, Amedia
Язык : Russian
ServiceKind/String : Complete Main
Default : Да
Forced : Да

Аудио #2
Идентификатор : 3
Формат : E-AC-3
Формат/Информация : Enhanced Audio Coding 3
Параметр Endianness формата : Big
Идентификатор кодека : A_EAC3
Продолжительность : 54 м. 20 с.
Вид битрейта : Постоянный
Битрейт : 448 Кбит/сек
Каналы : 6 каналов
Расположение каналов : Front: L C R, Side: L R, LFE
Частота : 48,0 КГц
Частота кадров : 187,500 кадров/сек (256 SPF)
Метод сжатия : С потерями
Размер потока : 174 Мбайт (7%)
Заголовок : EAC3 5.1 @ 448 kbps
Язык : English
ServiceKind/String : Complete Main
Default : Нет
Forced : Нет

Текст #1
Идентификатор : 4
Формат : UTF-8
Идентификатор кодека : S_TEXT/UTF8
Идентификатор кодека/Информация : UTF-8 Plain Text
Заголовок : Amedia
Язык : Russian
Default : Нет
Forced : Нет

Текст #2
Идентификатор : 5
Формат : UTF-8
Идентификатор кодека : S_TEXT/UTF8
Идентификатор кодека/Информация : UTF-8 Plain Text
Заголовок : SDH
Язык : English
Default : Нет
Forced : Нет
Раздача ведётся путём добавления новых серий; при каждом добавлении создаётся новый торрент.
Чтобы начать докачку новой серии, пользователям необходимо сделать следующее:
1. остановить скачивание,
2. удалить старый торрент у себя из клиента (старые серии удалять не надо),
3. скачать новый торрент и запустить его у себя в клиенте вместо старого, при этом указать клиенту путь в старую папку, куда и должно происходить скачивание новых серий.

Ваш клиент при этом должен произвести хеширование (проверку) старой папки (если не производит сам - помогите ему сделать это), и будет докачивать только те серии которых у вас ещё нет. Старые серии при этом не удаляются, а продолжают раздаваться!

Eсли вы уже удалили старые серии, то предотвратить повторную закачку старых серий можно, отжав галочку в соответствующих местах при запуске нового торрента. По возможности, желательно не удалять старые серии как можно дольше, чтобы релизёр не столько продолжал раздавать старые серии, а смог сконцентрироваться на новых.

Совет для тех, кто не хочет ждать перехеширования:
Создайте ещё одну папку рядом с папкой сериала (рядом, а не в ней!!!). Каждую новую серию после удачной загрузки копируйте в новую папку так чтобы ваша основная папка всегда была пуста. Когда ваш новый торрент предложит вам закачать все файлы, выберете только последнюю. Для сидирования же укажите адрес новой папки.

Как закачать отдельный файл из торрента или докачать ранее пропущенные файлы торрента!
1. Открыть торрент
2. Снять галки с тех файлов торрента, которые мы не хотим закачивать. Оставляем только на нужных нам файлах (файле).
3. Нажать О.К.

В клиенте utorrent

Инструкция

1) Открыть торрент


2) Снять галки с тех файлов торрента, которые мы не хотим закачивать:

* либо вручную, снимая с каждого файла галку( скрин №1)
* либо, нажав кнопку "Снять метки (Select None)", сняв сразу со всех файлов(скрин №2)
№1

№2

Оставляем только на нужных нам файлах (файле).

3)Нажать О.К
Приятного просмотра!!!




Скачать Электрические.сны.Филипа.К.Дика.Philip.K.Dick's.Electric.Dreams.(01x01-06.из.10).(Дэвид.Фарр).[2017.фантастика.WEB-DL].[1080p].[MVO.(Amedia)]+[Eng]+[Sub.Rus.Eng].torrent без регистрации
Золото ЗОЛОТАЯ РАЗДАЧА! СКАЧАННОЕ НЕ ЗАСЧИТЫВАЕТСЯ! Золото
Дата: Зарегистрирован   [ Тип: внутренний ] Как тут cкачать?
MAGNET ссылка
MAGNET ссылка


Скачать .torrent

71 KB

Статус: проверено DHT
Скачан: торрент - 10 раз, раздача полностью - 1 раз
Размер: 13,99 GB
Оценка:  - (Голосов: 0)
Поблагодарили: 0
Поделиться ссылкой на эту раздачу с друзьями:
В контактеFacebookОдноклассникиTwitterLivejournalМой МирLiveinternet
 

 
Показать сообщения:    


Вы не можете начинать темы
Вы не можете отвечать на сообщения
Вы не можете редактировать свои сообщения
Вы не можете удалять свои сообщения
Вы не можете голосовать в опросах
Вы не можете прикреплять файлы к сообщениям
Вы можете скачивать файлы