Loading...
Error

Скачать Достать коротышку / Get Shorty (сезон 01) (Адам Аркин и др.) [2017, комедия, криминал, WEB-DLRip] [720p] [MVO (OMSKBIRD)] торрент без регистрации

Статистика раздачи
Размер:  12,29 GB   |    Скачан:  3 раза
Сидов:  1  [  0 KB/s  ]  

 
 
 
Автор Сообщение

МихаНЕзатор

[] 

Информация о фильме
Название: Достать коротышку
Оригинальное название: Get Shorty
Год выхода: 2017
Жанр: Комедия, криминал
Режиссер: Аллен Култер

В ролях: Крис О’Дауд, Рэй Романо, Джиллиан Вигмэн, Кристин Элиз, Люси Уолтерс, Кристоффер Полаха, Шон Бриджерс, Лора Каннингэм, Меган Стивенсон и др.

О фильме: Майлз Дейли является наемником самой опасной криминальной группировки в Неваде. Ради своей дочери он решает сменить профессию и стать кинопродюсером. С этой целью Майлз отправляется в Голливуд снимать кино, благодаря которому он надеется отмыть преступные деньги. В Лос-Анджелесе он знакомится с неудачливым продюсером третьесортных фильмов, который становится его партнером. Однако бывшие коллеги Майлза не хотят его отпускать и вскоре вслед за ним приезжают в Лос-Анджелес.

Сериал «Достать коротышку» снят по мотивам одноименного романа Элмора Леонарда и является ремейком фильма 1995 года.



Страна: США
Продолжительность: ~ 55 мин. серия
Перевод: Любительский (многоголосый закадровый) | OMSKBIRD

Файл
Кодек: MPEG-4 AVC
Качество: WEB-DLRip 720p
Видео: AVC, 1280x720 (16:9), 23.976 fps, ~ 3000 kbps
Звук: Аудио rus: AC-3, 48 KHz, 2 ch, 192 kbps | OMSKBIRD records

АНОНСЫ ПОПУЛЯРНЫХ РАЗДАЧ
General
Unique ID : 177844171673909681120549533174517703220 (0x85CB8AA414526C57A3C00F79BEEBA234)
Complete name : F:Мои ДокументыВидеоРАЗДАЧИКоротышGet Shorty S01 WEB-DLRip 720p (OMSKBIRD)Get Shorty S01E01 WEB-DLRip 720p (OMSKBIRD).mkv
Format : Matroska
Format version : Version 2
File size : 1.38 GiB
Duration : 1h 4mn
Overall bit rate mode : Constant
Overall bit rate : 3 096 Kbps
Encoded date : UTC 2017-08-11 12:37:03
Writing application : mkvmerge v4.0.0 ('The Stars were mine') сборка от Jun 6 2010 16:18:42
Writing library : libebml v1.0.0 + libmatroska v1.0.0

Video
ID : 1
Format : AVC
Format/Info : Advanced Video Codec
Format profile : Baseline@L3.2
Format settings, CABAC : No
Format settings, ReFrames : 3 frames
Codec ID : V_MPEG4/ISO/AVC
Duration : 1h 4mn
Bit rate mode : Constant
Bit rate : 2 843 Kbps
Nominal bit rate : 3 000 Kbps
Width : 1 280 pixels
Height : 720 pixels
Display aspect ratio : 16:9
Frame rate : 23.976 fps
Standard : NTSC
Color space : YUV
Chroma subsampling : 4:2:0
Bit depth : 8 bits
Scan type : Progressive
Bits/(Pixel*Frame) : 0.129
Stream size : 1.27 GiB (92%)
Language : English
Default : Yes
Forced : No

Audio
ID : 2
Format : AC-3
Format/Info : Audio Coding 3
Mode extension : CM (complete main)
Format settings, Endianness : Big
Codec ID : A_AC3
Duration : 1h 4mn
Bit rate mode : Constant
Bit rate : 192 Kbps
Channel(s) : 2 channels
Channel positions : Front: L R
Sampling rate : 48.0 KHz
Bit depth : 16 bits
Compression mode : Lossy
Stream size : 87.9 MiB (6%)
Default : Yes
Forced : No
Перевод • Ангелина Яндемерова
Роли озвучивали • Семен Ващенко, Алексей Гнеушев, Владислав Данилов, Анастасия Флигина
Постер • Ксения Просветова




Скачать Достать.коротышку.Get.Shorty.(сезон.01).(Адам.Аркин.и.др.).[2017.комедия.криминал.WEB-DLRip].[720p].[MVO.(OMSKBIRD)].torrent без регистрации
Золото ЗОЛОТАЯ РАЗДАЧА! СКАЧАННОЕ НЕ ЗАСЧИТЫВАЕТСЯ! Золото
Дата: Зарегистрирован   [ Тип: внутренний ] Как тут cкачать?
MAGNET ссылка
MAGNET ссылка


Скачать .torrent

32 KB

Статус: проверено DHT
Скачан: торрент - 3 раз, раздача полностью - 1 раз
Размер: 12,29 GB
Оценка:  - (Голосов: 0)
Поблагодарили: 0
Поделиться ссылкой на эту раздачу с друзьями:
В контактеFacebookОдноклассникиTwitterLivejournalМой МирLiveinternet
 

 
Показать сообщения:    


Вы не можете начинать темы
Вы не можете отвечать на сообщения
Вы не можете редактировать свои сообщения
Вы не можете удалять свои сообщения
Вы не можете голосовать в опросах
Вы не можете прикреплять файлы к сообщениям
Вы можете скачивать файлы