Loading...
Error

Скачать Достать коротышку / Get Shorty (сезон 01) (Адам Аркин и др.) [2017, комедия, криминал, WEB-DLRip] [MVO (OMSKBIRD)] торрент без регистрации

Статистика раздачи
Размер:  7,72 GB   |    Скачан:  4 раза
Сидов:  1  [  0 KB/s  ]  
 
 
 
Автор Сообщение

МихаНЕзатор

[] 

Информация о фильме
Название: Достать коротышку
Оригинальное название: Get Shorty
Год выхода: 2017
Жанр: Комедия, криминал
Режиссер: Аллен Култер

В ролях: Крис О’Дауд, Рэй Романо, Джиллиан Вигмэн, Кристин Элиз, Люси Уолтерс, Кристоффер Полаха, Шон Бриджерс, Лора Каннингэм, Меган Стивенсон и др.

О фильме: Майлз Дейли является наемником самой опасной криминальной группировки в Неваде. Ради своей дочери он решает сменить профессию и стать кинопродюсером. С этой целью Майлз отправляется в Голливуд снимать кино, благодаря которому он надеется отмыть преступные деньги. В Лос-Анджелесе он знакомится с неудачливым продюсером третьесортных фильмов, который становится его партнером. Однако бывшие коллеги Майлза не хотят его отпускать и вскоре вслед за ним приезжают в Лос-Анджелес.

Сериал «Достать коротышку» снят по мотивам одноименного романа Элмора Леонарда и является ремейком фильма 1995 года.



Страна: США
Продолжительность: ~ 55 мин. серия
Перевод: Любительский (многоголосый закадровый) | OMSKBIRD

Файл
Кодек: Xvid
Качество: WEB-DLRip
Видео: AVI, 720x400 (16:9), 23.976 fps, ~ 1800 kbps
Звук: Аудио rus: AC-3, 48 KHz, 2 ch, 192 kbps | OMSKBIRD records

АНОНСЫ ПОПУЛЯРНЫХ РАЗДАЧ
General
Complete name : F:Мои ДокументыВидеоРАЗДАЧИКоротышGet Shorty S01 WEB-DLRip (OMSKBIRD)Get Shorty S01E01 WEB-DLRip (OMSKBIRD).avi
Format : AVI
Format/Info : Audio Video Interleave
File size : 887 MiB
Duration : 1h 4mn
Overall bit rate : 1 938 Kbps
Writing application : VirtualDubMod 1.5.10.3 | www.virtualdub-fr.org || (build 2550/release)
Writing library : VirtualDubMod build 2550/release

Video
ID : 0
Format : MPEG-4 Visual
Format profile : Advanced Simple@L5
Format settings, BVOP : 2
Format settings, QPel : No
Format settings, GMC : No warppoints
Format settings, Matrix : Default (H.263)
Codec ID : XVID
Codec ID/Hint : XviD
Duration : 1h 4mn
Bit rate : 1 736 Kbps
Width : 720 pixels
Height : 400 pixels
Display aspect ratio : 16:9
Frame rate : 23.976 fps
Color space : YUV
Chroma subsampling : 4:2:0
Bit depth : 8 bits
Scan type : Progressive
Compression mode : Lossy
Bits/(Pixel*Frame) : 0.251
Stream size : 795 MiB (90%)
Writing library : XviD 1.2.1 (UTC 2008-12-04)

Audio
ID : 1
Format : AC-3
Format/Info : Audio Coding 3
Mode extension : CM (complete main)
Format settings, Endianness : Big
Codec ID : 2000
Duration : 1h 4mn
Bit rate mode : Constant
Bit rate : 192 Kbps
Channel(s) : 2 channels
Channel positions : Front: L R
Sampling rate : 48.0 KHz
Bit depth : 16 bits
Compression mode : Lossy
Stream size : 87.9 MiB (10%)
Alignment : Split accross interleaves
Interleave, duration : 42 ms (1.00 video frame)
Interleave, preload duration : 500 ms
Перевод • Ангелина Яндемерова
Роли озвучивали • Семен Ващенко, Алексей Гнеушев, Владислав Данилов, Анастасия Флигина
Постер • Ксения Просветова




Скачать Достать.коротышку.Get.Shorty.(сезон.01).(Адам.Аркин.и.др.).[2017.комедия.криминал.WEB-DLRip].[MVO.(OMSKBIRD)].torrent без регистрации
Золото ЗОЛОТАЯ РАЗДАЧА! СКАЧАННОЕ НЕ ЗАСЧИТЫВАЕТСЯ! Золото
Дата: Зарегистрирован   [ Тип: внутренний ] Как тут cкачать?
MAGNET ссылка
MAGNET ссылка


Скачать .torrent

21 KB

Статус: проверено DHT
Скачан: торрент - 4 раз, раздача полностью - 2 раз
Размер: 7,72 GB
Оценка:  - (Голосов: 0)
Поблагодарили: 0
Поделиться ссылкой на эту раздачу с друзьями:
В контактеFacebookОдноклассникиTwitterLivejournalМой МирLiveinternet
 

 
Показать сообщения:    


Вы не можете начинать темы
Вы не можете отвечать на сообщения
Вы не можете редактировать свои сообщения
Вы не можете удалять свои сообщения
Вы не можете голосовать в опросах
Вы не можете прикреплять файлы к сообщениям
Вы можете скачивать файлы