Loading...
Error

Скачать Отличница (01-08 из 08) (Оксана Карас) [2017, приключения, детектив, драма, история WEB-DL] [1080p] торрент без регистрации

Статистика раздачи
Размер:  12,6 GB   |    Скачан:  9 раз
Сидов:  1  [  0 KB/s  ]  
 
 
 
Автор Сообщение

МихаНЕзатор

[] 

Информация о фильме
Оригинальное название: Отличница
Год выпуска: 2017
Жанр: Приключения, детектив, драма, история
Выпущено: Россия, DT Production, Эпик Медиа
Режиссер: Оксана Карас

В ролях: Яна Гладких, Никита Ефремов, Таисия Вилкова, Александр Яценко, Валентин Самохин, Дмитрий Лысенков, Владимир Мишуков, Виталий Коваленко, Юлия Ауг, Мартиньш Вилсонс, Елена Коренева, Игорь Скляр, Елена Руфанова, Анна Цуканова-Котт, Маргарита Адаева, Валерий Кухарешин, Анатолий Хропов

О фильме: Апрель 1958 года, выпускница юридического факультета Ленинградского университета, кафедры уголовного процесса и криминалистики Мария Крапивина получает распределение в УГРО центрального районного отдела милиции. Совсем еще девчонка, отличница, дочь интеллигентных родителей попадает в коллектив состоящий из прошедших войну грубоватых и опытных оперативников. В первый же день Маша хочет уволиться. Но ей в руки попадает информация о предателе в отделе, связанного с крупной и дерзкой бандой. Маша решает, что ее долг остаться и раскрыть «крота». А кроме того, доказать, что она чего-то стоит. Под подозрение попадают все, в том числе начальник отдела опер Шведов, «неотесанный мужлан», в которого Маша неожиданно для себя влюбляется, и с каждым днем все больше и больше…

Релиз от:

Файл
Качество: WEB-DL (1080p)
Видео: MPEG-4 AVC, ~ 4800 Кбит/с, 1920x1080
Аудио: AC3, 2 ch, 192 Кбит/с
Продолжительность: 8 х ~ 00:47:00
Язык: Русский

АНОНСЫ ПОПУЛЯРНЫХ РАЗДАЧ

General
Unique ID : 192430374104733489437174943374431078143 (0x90C4BDF1BB81B8E5B968FDDF3319C6FF)
Complete name : E:\Otlichnica.2017.WEB-DL.(1080p).Getty\Otlichnica.e01.2017.WEB-DL.(1080p).Getty.mkv
Format : Matroska
Format version : Version 4 / Version 2
File size : 1.60 GiB
Duration : 47 min 0 s
Overall bit rate mode : Constant
Overall bit rate : 4 882 kb/s
Movie name : Otlichnica.e01.2017.WEB-DL.(1080p).Getty
Encoded date : UTC 2017-09-26 21:00:02
Writing application : mkvmerge v7.8.0 ('River Man') 32bit built on Mar 27 2015 16:18:02
Writing library : libebml v1.3.1 + libmatroska v1.4.2

Video
ID : 1
Format : AVC
Format/Info : Advanced Video Codec
Format profile : High@L4.1
Format settings, CABAC : Yes
Format settings, RefFrames : 4 frames
Codec ID : V_MPEG4/ISO/AVC
Duration : 47 min 0 s
Bit rate mode : Constant
Bit rate : 4 800 kb/s
Width : 1 920 pixels
Height : 1 080 pixels
Display aspect ratio : 16:9
Frame rate mode : Constant
Frame rate : 25.000 FPS
Color space : YUV
Chroma subsampling : 4:2:0
Bit depth : 8 bits
Scan type : Progressive
Bits/(Pixel*Frame) : 0.093
Stream size : 1.54 GiB (96%)
Default : Yes
Forced : No

Audio
ID : 2
Format : AC-3
Format/Info : Audio Coding 3
Format settings, Endianness : Big
Codec ID : A_AC3
Duration : 47 min 0 s
Bit rate mode : Constant
Bit rate : 192 kb/s
Channel(s) : 2 channels
Channel positions : Front: L R
Sampling rate : 48.0 kHz
Frame rate : 31.250 FPS (1536 SPF)
Bit depth : 16 bits
Compression mode : Lossy
Stream size : 64.6 MiB (4%)
Service kind : Complete Main
Default : Yes
Forced : No




Скачать Отличница.(01-08.из.08).(Оксана.Карас).[2017.приключения.детектив.драма.история.WEB-DL].[1080p].torrent без регистрации
Золото ЗОЛОТАЯ РАЗДАЧА! СКАЧАННОЕ НЕ ЗАСЧИТЫВАЕТСЯ! Золото
Дата: Зарегистрирован   [ Тип: внутренний ] Как тут cкачать?
MAGNET ссылка
MAGNET ссылка


Скачать .torrent

65 KB

Статус: проверено DHT
Скачан: торрент - 9 раз, раздача полностью - 5 раз
Размер: 12,6 GB
Оценка:  - (Голосов: 0)
Поблагодарили: 1
Поделиться ссылкой на эту раздачу с друзьями:
В контактеFacebookОдноклассникиTwitterLivejournalМой МирLiveinternet
 

 
Показать сообщения:    


Вы не можете начинать темы
Вы не можете отвечать на сообщения
Вы не можете редактировать свои сообщения
Вы не можете удалять свои сообщения
Вы не можете голосовать в опросах
Вы не можете прикреплять файлы к сообщениям
Вы можете скачивать файлы