Loading...
Error

Скачать Американская история ужасов / American Horror Story (07x01-07 из 11) (Альфонсо Гомез-Рейон и др.) [2017, ужасы, фэнтези, триллер, драма, WEB-DLRip] [720p] [MVO (OMSKBIRD)]+[Eng] торрент без регистрации

 
Автор Сообщение

МихаНЕзатор

[] 

Информация о фильме
Название: Американская история ужасов
Оригинальное название: American Horror Story
Год выхода: 2017
Жанр: Ужасы, фэнтези, триллер, драма
Режиссер: Брэдли Букер, Майкл Аппендаль, Альфонсо Гомез-Рейон, Майкл Леманн

В ролях: Леди Гага, Эван Питерс, Джессика Лэнг, Лили Рэйб, Фрэнсис Конрой, Сара Полсон, Таисса Фармига, Дэнис О`Харе, Закари Куинто, Дилан МакДермотт, Джэми Брюэр, Кэти Бэйтс, Джозеф Файнс, Лиззи Брошере, Эмма Робертс, Джеймс Кромуэлл, Конни Бриттон, Анджела Бассетт, Габури Сидибе, Кейт Мара и др.

О фильме: Сюжет нового седьмого сезона сериала, вышедший под названием «Культ», начинается с показа отрывков из президентской кампании Дональда Трампа и Хиллари Клинтон. Герои серии с ужасом наблюдают за тем, как Дональд Трамп объявлен президентом Соединенных Штатов...



Релиз от: OmskBird

Страна: США
Продолжительность: ~00:49:00 серия
Перевод: Любительский (многоголосый закадровый) | OMSKBIRD records

Файл
Кодек: AVC/H.264
Качество: WEB-DLRip 720p
Видео: H.264, 1280x720 (16:9), 23,976 fps, ~3000 kbps, 0.149 bit/pixel
Звук: AC3, 48 kHz, 2 ch, 192 Kbps | OmskBird
Субтитры: отсутствуют
Реклама: присутствует

АНОНСЫ ПОПУЛЯРНЫХ РАЗДАЧ


Торрент обновлён, добавлена 7-я серия!

Релиз-группа: OmskBird
Перевод: Татьяна Масаковская
Роли озвучивали: Алексей Гнеушев, Павел Ярощик, Владислав Данилов, Екатерина Кабашова
Звукорежиссер: Павел Квентов
Постер: Ксения Просветова

General
Complete name : G:FilmsAmerican.Horror.Story.S07.720p.WEB-DLRip.OmskBirdAmerican.Horror.Story.S07E01.720p.WEB-DLRip.OmskBird.mp4
Format : MPEG-4
Format profile : Base Media
Codec ID : isom (isom)
File size : 1.08 GiB
Duration : 49mn 7s
Overall bit rate : 3 138 Kbps
Encoded date : UTC 2017-09-06 17:50:41
Tagged date : UTC 2017-09-06 17:50:41
Writing application : Yamb 2.1.0.0 [http://yamb.unite-video.com]

Video
ID : 1
Format : AVC
Format/Info : Advanced Video Codec
Format profile : Main@L3.2
Format settings, CABAC : Yes
Format settings, ReFrames : 3 frames
Codec ID : avc1
Codec ID/Info : Advanced Video Coding
Duration : 49mn 6s
Bit rate : 2 945 Kbps
Maximum bit rate : 6 420 Kbps
Width : 1 280 pixels
Height : 720 pixels
Display aspect ratio : 16:9
Frame rate mode : Constant
Frame rate : 23.976 (24000/1001) fps
Standard : PAL
Color space : YUV
Chroma subsampling : 4:2:0
Bit depth : 8 bits
Scan type : Progressive
Bits/(Pixel*Frame) : 0.133
Stream size : 1.01 GiB (94%)
Language : English
Encoded date : UTC 2017-09-06 09:10:46
Tagged date : UTC 2017-09-06 17:51:04
Color range : Limited
Color primaries : BT.709
Transfer characteristics : BT.709
Matrix coefficients : BT.709

Audio
ID : 2
Format : AC-3
Format/Info : Audio Coding 3
Mode extension : CM (complete main)
Format settings, Endianness : Big
Codec ID : ac-3
Duration : 49mn 7s
Bit rate mode : Constant
Bit rate : 192 Kbps
Channel(s) : 2 channels
Channel positions : Front: L R
Sampling rate : 48.0 KHz
Frame rate : 31.250 fps (1536 spf)
Bit depth : 16 bits
Compression mode : Lossy
Stream size : 67.5 MiB (6%)
Encoded date : UTC 2017-09-06 17:51:03
Tagged date : UTC 2017-09-06 17:51:04

Внимание! Раздача ведётся путём добавления новых серий; при каждом добавлении создётся новый торрент. Чтобы начать докачку новой серии, пользователям необходимо сделать следующее:
Остановить скачивание.
Удалить старый торрент у себя из клиента (старые серии удалять не надо).
Скачать новый торрент и запустить его у себя в клиенте вместо старого, при этом указать клиенту путь в старую папку куда и должно происходить скачивание новых серий.
Ваш клиент при этом должен произвести хеширование (проверку) старой папки (если не производит сам - помогите ему сделать это), и будет докачивать только те серии которых у вас ещё нет. Старые серии при этом не удаляются, а продолжают раздаваться!
Eсли вы уже удалили старые серии, то предотвратить повторную закачку старых серий можно, отжав галочку в соответсвующих местах при запуске нового торрента. По возможности, желательно не удалять старые серии как можно дольше чтобы релизёр не столько продолжал раздавать старые серии, а смог сконцентрироваться на новых.
Американская.история.ужасов.American.Horror.Story.(07x01-07.из.11).(Альфонсо.Гомез-Рейон.и.др.).[2017.ужасы.фэнтези.триллер.драма.WEB-DLRip].[720p].[MVO.(OMSKBIRD)]+[Eng].torrent
Раздачи: Не зарегистрирован

Скачать .torrent

19 KB

Добавлен:
Скачано: 1 раз
   
 
Показать сообщения:    


Вы не можете начинать темы
Вы не можете отвечать на сообщения
Вы не можете редактировать свои сообщения
Вы не можете удалять свои сообщения
Вы не можете голосовать в опросах
Вы не можете прикреплять файлы к сообщениям
Вы можете скачивать файлы