Loading...
Error

Скачать Ментовские войны. Киев (01-11 из 32) (Сергей Толкушкин и др.) [2017, драма, детектив, криминал, SATRip] торрент без регистрации

Статистика раздачи
Размер:  7,48 GB   |    Скачан:  12 раз
Сидов:  5  [  0 KB/s  ]   Личеров:  6  [  0 KB/s  ]  

 
 
 
Автор Сообщение

МихаНЕзатор

[] 

Год выпуска: 2017
Страна: Украина
Жанр: драма, криминал
Режиссер: Сергей Толкушкин, Андрей Руденко, Сергей Уманец

В ролях: Роман Мацюта, Алексей Смолка, Людмила Барбир, Дарья Трегубова, Сергей Деревянко, Анастасия Гиренкова, Дмитрий Сарансков, Оксана Степчук, Константин Корецкий, Александр Форманчук, Владимир Мельник, Карина Шереверова, Мила Картамышева, Евгений Ламах, Оксана Коляденко

Описание: За расследование запутанных дел берётся лучший оперативник Киева и любимец женщин Виктор Таран. Объявив войну криминальному миру, он переходит дорогу криминальным авторитетам, руководству силовых структур и завистливым коллегам. Оказывается, даже в его сплочённой команде не все разделяют принципы чести и справедливости. Чтобы вывести предателей на чистую воду и восстановить справедливость, непоколебимый оперативник пойдёт на всё. Даже если его собственная жизнь окажется под угрозой...



Киностудия: "1+1 Продакшн" по заказу телеканала 2+2
Продолжительность: ~ 00:48:00 / серия
Субтитры: нет

Качество: SATRip / DVB
Формат: AVI
Видео: 720x400 (16:9), 25.000 fps, XviD ~ 1800 kbps avg, 0.250 bit/pixel
Аудио: 48 kHz, Dolby AC3 2.0 192 kbps

АНОНСЫ ПОПУЛЯРНЫХ РАЗДАЧ


Торрент обновлён, добавлена 11-я серия!

Внимание! Раздача ведётся путём добавления новых серий; при каждом добавлении создаётся новый торрент-файл. Чтобы начать докачку новой серии, пользователям необходимо сделать следующее:
(1) остановить скачивание;
(2) удалить старый торрент-файл у себя из клиента (старые серии удалять не надо);
(3) скачать новый торрент-файл и запустить его у себя в клиенте вместо старого, при этом указать клиенту путь в старую папку куда и должно происходить скачивание новых серий.
Ваш клиент при этом должен произвести хеширование (проверку) старой папки (если он не производит проверку сам – помогите ему сделать это), и будет докачивать только те серии которых у вас ещё нет. Старые серии при этом не удаляются, а продолжают раздаваться!
Если вы уже удалили старые серии, то предотвратить повторную закачку старых серий можно, отжав галочку в соответствующих местах при запуске нового торрент-файла. Желательно старые серии не удалять как можно дольше, чтобы релизёр не столько продолжал раздавать старые серии, а смог сконцентрироваться на новых.

Общее
Формат : AVI
Формат/Информация : Audio Video Interleave
Размер файла : 677 Мбайт
Продолжительность : 47 м.
Общий поток : 2002 Кбит/сек
Программа кодирования : VirtualDubMod 1.5.10.3 | www.virtualdub-fr.org || (build 2550/release)
Библиотека кодирования : VirtualDubMod build 2550/release

Видео
Идентификатор : 0
Формат : MPEG-4 Visual
Профиль формата : Advanced Simple@L5
Параметр BVOP формата : 1
Параметр QPel формата : Нет
Параметр GMC формата : Без точки перехода
Параметр матрицы формата : Выборочная
Идентификатор кодека : XVID
Идентификатор кодека/Подсказка : XviD
Продолжительность : 47 м.
Битрейт : 1800 Кбит/сек
Ширина : 720 пикселей
Высота : 400 пикселей
Соотношение сторон : 16:9
Частота кадров : 25,000 кадров/сек
Цветовое пространство : YUV
Субдискретизация насыщенности : 4:2:0
Битовая глубина : 8 бит
Тип развёртки : Прогрессивная
Метод сжатия : С потерями
Бит/(Пиксели*Кадры) : 0.250
Размер потока : 608 Мбайт (90%)
Библиотека кодирования : XviD 73

Аудио
Идентификатор : 1
Формат : AC-3
Формат/Информация : Audio Coding 3
Расширение режима : CM (complete main)
Параметр Endianness формата : Big
Идентификатор кодека : 2000
Продолжительность : 47 м.
Вид битрейта : Постоянный
Битрейт : 192 Кбит/сек
Каналы : 2 канала
Расположение каналов : Front: L R
Частота : 48,0 КГц
Битовая глубина : 16 бит
Метод сжатия : С потерями
Размер потока : 64,9 Мбайт (10%)
Выравнивание : Разделение по промежуткам
Продолжительность промежутка : 40 мс. (1,00 видеокадр)
Время предзагрузки промежутка : 500 мс.




Скачать Ментовские.войны.Киев.(01-11.из.32).(Сергей.Толкушкин.и.др.).[2017.драма.детектив.криминал.SATRip].torrent без регистрации
Золото ЗОЛОТАЯ РАЗДАЧА! СКАЧАННОЕ НЕ ЗАСЧИТЫВАЕТСЯ! Золото
Дата: Зарегистрирован   [ Тип: внешний ] Как тут cкачать?
MAGNET ссылка
MAGNET ссылка


Скачать .torrent

20 KB

Статус: проверено DHT
Скачан: торрент - 12 раз, раздача полностью - 3 раз
Размер: 7,48 GB
Оценка:  5 (Голосов: 1)
Поблагодарили: 2
Поделиться ссылкой на эту раздачу с друзьями:
В контактеFacebookОдноклассникиTwitterLivejournalМой МирLiveinternet
 

 
Показать сообщения:    


Вы не можете начинать темы
Вы не можете отвечать на сообщения
Вы не можете редактировать свои сообщения
Вы не можете удалять свои сообщения
Вы не можете голосовать в опросах
Вы не можете прикреплять файлы к сообщениям
Вы можете скачивать файлы