Loading...
Error

Скачать Детективное агентство Дирка Джентли / Dirk Gently's Holistic Detective Agency (Сезон 02, серии 01-08 из 10) (Пако Кабесас, Дин Паризо, Майкл Патрик Джэнн) [2017, фантастика, триллер, драма, WEBRip] [MVO] (Jaskier) + Original торрент без регистрации

Статистика раздачи
Размер:  4,3 GB   |    Скачан:  13 раз
Сидов:  22  [  0 KB/s  ]   Личеров:  23  [  0 KB/s  ]  
 
 
 
Автор Сообщение

leon030982

[] 

Детективное агентство Дирка Джентли | Dirk Gently's Holistic Detective Agency
Год выпуска: 2017
Страна: США, Великобритания
Жанр: комедия, фантастика
Продолжительность: ~ 00:46:00
Перевод: Профессиональный (многоголосый закадровый) | Jaskier

Режиссёр: Макс Лэндис

В ролях: Кристиан Бако, Сэмюэл Барнетт, Элайджа Вуд, Нил Браун Мл., Аарон Дуглас, Фиона Дуриф, Майкл Эклунд, Джейд Эшете, Мфо Коахо

Описание: Главный герой этого сериала никогда не отступит перед сложными расследованиями. Детектив Джентли и его верный, но жутко недовольный всем на свете помощник Тодд готовы отправиться на раскрытие очередного преступления. Каждый новый сезон эти персонажи будут расследовать сложное запутанное дело. В этот раз они сталкиваются с тайной, которую никто не мог раскрыть уже давно. На пути главных героев ожидают реальные опасности. Каждая новая серия - это очередной шаг к разгадке, а также очередное испытание, которое Джентли и Тодду предстоит пройти, несмотря на трудности и некоторые проблемы с логическим мышлением.



Качество: WEBRip
Формат: AVI
Видео: XviD, 720x400 (16:9), 23,976 fps, ~1400 kbps
Аудио 1: MP3, 48 kHz, 2 ch, 128 kbps - Rus
Аудио 2: MP3, 48 kHz, 2 ch, 128 kbps - Eng
Субтитры: отсутствуют

Добавлена 8-я серия!
Переведено и озвучено: студией Jaskier
Общее
Полное имя                               : E:\JASKiER\Dirk Gently's Holistic Detective Agency. Season 2 (WEBRip l 400p l Jaskier)\Dirk.Gently's.Holistic.Detective.Agency.S02E01.WEBRip.Rus.Eng.Jaskier.avi
Формат                                   : AVI
Формат/Информация                        : Audio Video Interleave
Размер файла                             : 550 Мбайт
Продолжительность                        : 43 м. 34 с.
Общий поток                              : 1766 Кбит/сек
Программа кодирования                    : VirtualDubMod 1.5.10.3 | www.virtualdub-fr.org || (build 2550/release)
Библиотека кодирования                   : VirtualDubMod build 2550/release

Видео
Идентификатор                            : 0
Формат                                   : MPEG-4 Visual
Профиль формата                          : Advanced Simple@L5
Параметр BVOP формата                    : 1
Параметр QPel формата                    : Нет
Параметр GMC формата                     : Без точки перехода
Параметр матрицы формата                 : Default (MPEG)
Идентификатор кодека                     : XVID
Идентификатор кодека/Подсказка           : XviD
Продолжительность                        : 43 м. 34 с.
Битрейт                                  : 1496 Кбит/сек
Ширина                                   : 720 пикселей
Высота                                   : 400 пикселей
Соотношение сторон                       : 16:9
Частота кадров                           : 23,976 (24000/1001) кадра/сек
Цветовое пространство                    : YUV
Субдискретизация насыщенности            : 4:2:0
Битовая глубина                          : 8 бит
Тип развёртки                            : Прогрессивная
Метод сжатия                             : С потерями
Бит/(Пиксели*Кадры)                      : 0.217
Размер потока                            : 466 Мбайт (85%)
Библиотека кодирования                   : XviD 73

Аудио #1
Идентификатор                            : 1
Формат                                   : MPEG Audio
Версия формата                           : Version 1
Профиль формата                          : Layer 3
Режим                                    : Joint stereo
Расширение режима                        : MS Stereo
Идентификатор кодека                     : 55
Идентификатор кодека/Подсказка           : MP3
Продолжительность                        : 43 м. 34 с.
Вид битрейта                             : Постоянный
Битрейт                                  : 128 Кбит/сек
Каналы                                   : 2 канала
Частота                                  : 48,0 КГц
Метод сжатия                             : С потерями
Размер потока                            : 39,9 Мбайт (7%)
Выравнивание                             : Соединение по промежуткам
Продолжительность промежутка             : 42  мс. (1,00 видеокадр)
Время предзагрузки промежутка            : 504  мс.

Аудио #2
Идентификатор                            : 2
Формат                                   : MPEG Audio
Версия формата                           : Version 1
Профиль формата                          : Layer 3
Режим                                    : Joint stereo
Идентификатор кодека                     : 55
Идентификатор кодека/Подсказка           : MP3
Продолжительность                        : 43 м. 34 с.
Вид битрейта                             : Постоянный
Битрейт                                  : 128 Кбит/сек
Каналы                                   : 2 канала
Частота                                  : 48,0 КГц
Метод сжатия                             : С потерями
Размер потока                            : 39,9 Мбайт (7%)
Выравнивание                             : Соединение по промежуткам
Продолжительность промежутка             : 42  мс. (1,00 видеокадр)
Время предзагрузки промежутка            : 504  мс.
Когда раздача ведётся путём добавления новых серий, при каждом добавлении создётся новый торрент. Чтобы начать докачку новой серии, пользователям необходимо сделать следующее:
(1) остановить скачивание,
(2) удалить старый торрент у себя из клиента (старые серии удалять не надо),
(3) скачать новый торрент и запустить его у себя в клиенте вместо старого, при этом указать клиенту путь в старую папку, куда и должно происходить скачивание новых серий.
Ваш клиент при этом должен произвести хеширование (проверку) старой папки (если не производит сам - помогите ему сделать это), и будет докачивать только те серии, которых у вас ещё нет. Старые серии при этом не удаляются, а продолжают раздаваться!
Eсли вы уже удалили старые серии, то предотвратить повторную закачку старых серий можно, отжав галочку в соответсвующих местах при запуске нового торрента. По возможности, желательно не удалять старые серии как можно дольше, чтобы релизёр не столько продолжал раздавать старые серии, а смог сконцентрироваться на новых.




Скачать Детективное.агентство.Дирка.Джентли.Dirk.Gently's.Holistic.Detective.Agency.(Сезон.02.серии.01-08.из.10).(Пако.Кабесас.Дин.Паризо.Майкл.Патрик.Джэнн).[2017.фантастика.триллер.драма.WEBRip].[MVO].(Jaskier).+.Original.torrent без регистрации
Золото ЗОЛОТАЯ РАЗДАЧА! СКАЧАННОЕ НЕ ЗАСЧИТЫВАЕТСЯ! Золото
Дата: Зарегистрирован   [ Тип: внешний ] Как тут cкачать?
MAGNET ссылка
MAGNET ссылка


Скачать .torrent

23 KB

Статус: проверено DHT
Скачан: торрент - 13 раз, раздача полностью - 2 раз
Размер: 4,3 GB
Оценка:  - (Голосов: 0)
Поблагодарили: 1
Поделиться ссылкой на эту раздачу с друзьями:
В контактеFacebookОдноклассникиTwitterLivejournalМой МирLiveinternet
 

 
Показать сообщения:    


Вы не можете начинать темы
Вы не можете отвечать на сообщения
Вы не можете редактировать свои сообщения
Вы не можете удалять свои сообщения
Вы не можете голосовать в опросах
Вы не можете прикреплять файлы к сообщениям
Вы можете скачивать файлы