Loading...
Error

/ / Ghosted ( 01, 01-09 13) ( ) [2017, , WEBRip] [720p] [MVO](Good People) + [Original] + [Subs] (eng)

5,85 GB   |    :  26
1  [  0 KB/s  ]  
 
 
 

leon030982

[] 

/ / Ghosted

: 2017
:
: , ,
: ~ 00:24:00
: ( ) Good People
:

: ,

: , , , , ,

: - , . . . , - . , . -. - , . , , , . - , , . ?



: WEBRip 720p
: MKV
: AVC
: AC3, E-AC3
: H264, 1280x720 (16:9), 23.976 fps, ~3000kbps, ~0.137 bit/pixel
1: Dolby AC3 48000Hz 5.1 640 Kbps
2: Dolby E-AC3 48000Hz 5.1 640 Kbps
General
Unique ID : 185928632007737413923404030726562379763 (0x8BE08D4F3BEAB3AB817644A7A5C3F7F3)
Complete name : Ghosted.S01E01.Pilot.720p.AMZN.WEB-DL.DDP5.1.H.264-GoodPeople.mkv
Format : Matroska
Format version : Version 2
File size : 754 MiB
Duration : 23mn 56s
Overall bit rate mode : Variable
Overall bit rate : 4 403 Kbps
Encoded date : UTC 2017-10-03 00:19:49
Writing application : mkvmerge v5.4.0 ('Piper') built on Mar 10 2012 13:34:39
Writing library : libebml v1.2.3 + libmatroska v1.3.0
DURATION : 00:23:52.298000000
NUMBER_OF_FRAMES : 653
NUMBER_OF_BYTES : 19229
_STATISTICS_WRITING_APP : mkvmerge v15.0.0 ('Duel with the Devil') 64-bit
_STATISTICS_WRITING_DATE_UT : 2017-09-28 22:21:56
_STATISTICS_TAGS : BPS DURATION NUMBER_OF_FRAMES NUMBER_OF_BYTES

Video
ID : 1
Format : AVC
Format/Info : Advanced Video Codec
Format profile : High@L3.1
Format settings, CABAC : Yes
Format settings, ReFrames : 5 frames
Codec ID : V_MPEG4/ISO/AVC
Duration : 23mn 56s
Bit rate mode : Variable
Bit rate : 3 035 Kbps
Maximum bit rate : 4 500 Kbps
Width : 1 280 pixels
Height : 720 pixels
Display aspect ratio : 16:9
Frame rate mode : Constant
Frame rate : 23.976 fps
Color space : YUV
Chroma subsampling : 4:2:0
Bit depth : 8 bits
Scan type : Progressive
Bits/(Pixel*Frame) : 0.137
Stream size : 520 MiB (69%)
Default : Yes
Forced : No
Color range : Limited
Color primaries : BT.709
Transfer characteristics : BT.709
Matrix coefficients : BT.709

Audio #1
ID : 2
Format : AC-3
Format/Info : Audio Coding 3
Mode extension : CM (complete main)
Format settings, Endianness : Big
Codec ID : A_AC3
Duration : 23mn 56s
Bit rate mode : Constant
Bit rate : 640 Kbps
Channel(s) : 6 channels
Channel positions : Front: L C R, Side: L R, LFE
Sampling rate : 48.0 KHz
Compression mode : Lossy
Stream size : 110 MiB (15%)
Language : Russian
Default : Yes
Forced : No

Audio #2
ID : 3
Format : E-AC-3
Format/Info : Audio Coding 3
Format settings, Endianness : Big
Codec ID : A_EAC3
Duration : 23mn 56s
Bit rate mode : Constant
Bit rate : 640 Kbps
Channel(s) : 6 channels
Channel positions : Front: L C R, Side: L R, LFE
Sampling rate : 48.0 KHz
Compression mode : Lossy
Stream size : 110 MiB (15%)
Language : English
Default : No
Forced : No

Text
ID : 4
Format : UTF-8
Codec ID : S_TEXT/UTF8
Codec ID/Info : UTF-8 Plain Text
Language : English
Default : No
Forced : No
, . , :
(1) ,
(2) ( ),
(3) , , .
() ( - ), , . , !
E , , . , , , .



....Ghosted.(.01..01-09..13).(.).[2017..WEBRip].[720p].[MVO](Good.People).+.[Original].+.[Subs].(eng).torrent
  ! ! 
:   [ : ] c?
MAGNET
MAGNET


.torrent

16 KB

: DHT
: - 26 , - 5
: 5,85 GB
- (: 0)
: 0
:
 FacebookTwitterLivejournal Liveinternet
 

 
: