Loading...
Error

Скачать Коллективный разум / Wisdom of Crowd (Сезон 01) (Адам Дэвидсон) [2017, Драма, криминал, WEBRip][MVO] (Good People) + [Original] торрент без регистрации

Статистика раздачи
Размер:  6,98 GB   |    Скачан:  45 раз
Сидов:  1  [  0 KB/s  ]  
 
 
 
Автор Сообщение

leon030982

[] 

Коллективный разум / Wisdom of Crowd

Год выпуска: 2017
Страна: США
Жанр: Драма, криминал
Продолжительность: ~ 00:45:00
Перевод: Профессиональный (многоголосый закадровый) Студия Good People
Субтитры: нет

Режиссёр: Адам Дэвидсон

В ролях: Наталия Тена, Джереми Пивен, Ричард Т. Джонс, Алекс Дункан, Чад Рук, Ион Оверман, Блейк Ли, Рамсес Хименес и др.

Описание: В центре процедурной драмы харизматичный техногений Джеффри Таннер, жаждущий раскрыть убийство своей дочери. Убеждённый, что одна голова хорошо, а две лучше, он решает привлечь к раскрытию преступлений людей с бескрайних просторов интернета и создаёт передовой краудсорсинговый узел, способный в корне изменить всю систему расследования преступлений в Сан-Франциско.


Качество: WEBRip
Формат: AVI
Видео кодек: XvID
Аудио кодек: MP3
Видео: XviD, ~ 1500 Кбит/с, 720x400, 23.976 fps
Аудио 1: 48 kHz, MPEG Layer 3, 2 ch, ~128.00 kbps avg - MVO
Аудио 2: 48 kHz, MPEG Layer 3, 2 ch, ~128.00 kbps avg - ENG
General
Complete name : E:\Wisdom of the Crowd. Season 1 (WEBRip l 400p l Good People)\Wisdom.of.the.Crowd.S01E01.WEBRip.Rus.Eng.GoodPeople.avi
Format : AVI
Format/Info : Audio Video Interleave
File size : 550 MiB
Duration : 43 min 54 s
Overall bit rate : 1 753 kb/s
Writing application : VirtualDubMod 1.5.10.3 | www.virtualdub-fr.org || (build 2550/release)
Writing library : VirtualDubMod build 2550/release

Video
ID : 0
Format : MPEG-4 Visual
Format profile : Advanced Simple@L5
Format settings : BVOP1
Format settings, BVOP : 1
Format settings, QPel : No
Format settings, GMC : No warppoints
Format settings, Matrix : Default (MPEG)
Codec ID : XVID
Codec ID/Hint : XviD
Duration : 43 min 54 s
Bit rate : 1 416 kb/s
Width : 720 pixels
Height : 400 pixels
Display aspect ratio : 16:9
Frame rate : 23.976 (24000/1001) FPS
Color space : YUV
Chroma subsampling : 4:2:0
Bit depth : 8 bits
Scan type : Progressive
Compression mode : Lossy
Bits/(Pixel*Frame) : 0.205
Stream size : 445 MiB (81%)
Writing library : XviD 73

Audio #1
ID : 1
Format : MPEG Audio
Format version : Version 1
Format profile : Layer 3
Format settings : Joint stereo / MS Stereo
Mode : Joint stereo
Mode extension : MS Stereo
Codec ID : 55
Codec ID/Hint : MP3
Duration : 43 min 54 s
Bit rate mode : Constant
Bit rate : 128 kb/s
Channel(s) : 2 channels
Sampling rate : 48.0 kHz
Compression mode : Lossy
Stream size : 40.2 MiB (7%)
Alignment : Aligned on interleaves

Audio #2
ID : 2
Format : MPEG Audio
Format version : Version 1
Format profile : Layer 3
Format settings : Joint stereo / MS Stereo
Mode : Joint stereo
Mode extension : MS Stereo
Codec ID : 55
Codec ID/Hint : MP3
Duration : 43 min 54 s
Bit rate mode : Constant
Bit rate : 128 kb/s
Channel(s) : 2 channels
Sampling rate : 48.0 kHz
Compression mode : Lossy
Stream size : 40.2 MiB (7%)
Alignment : Aligned on interleaves



Скачать Коллективный.разум.Wisdom.of.Crowd.(Сезон.01).(Адам.Дэвидсон).[2017.Драма.криминал.WEBRip][MVO].(Good.People).+.[Original].torrent без регистрации
Золото ЗОЛОТАЯ РАЗДАЧА! СКАЧАННОЕ НЕ ЗАСЧИТЫВАЕТСЯ! Золото
Дата: Зарегистрирован   [ Тип: внутренний ] Как тут cкачать?
MAGNET ссылка
MAGNET ссылка


Скачать .torrent

37 KB

Статус: проверено DHT
Скачан: торрент - 45 раз, раздача полностью - 11 раз
Размер: 6,98 GB
Оценка:  - (Голосов: 0)
Поблагодарили: 0
Поделиться ссылкой на эту раздачу с друзьями:
В контактеFacebookОдноклассникиTwitterLivejournalМой МирLiveinternet
 

 
Показать сообщения:    


Вы не можете начинать темы
Вы не можете отвечать на сообщения
Вы не можете редактировать свои сообщения
Вы не можете удалять свои сообщения
Вы не можете голосовать в опросах
Вы не можете прикреплять файлы к сообщениям
Вы можете скачивать файлы