Loading...
Error

Скачать Балерина / Ballerina (Эрик Саммер, Эрик Уорин) [2016, Мультфильм, мюзикл, приключения, семейный, BDRip-HEVC] [1080p] [Dub Rus, Ukr (лицензия iTunes)]+[Fre] торрент без регистрации

Статистика раздачи
Размер:  3,2 GB   |    Скачан:  112 раз
Сидов:  1  [  0 KB/s  ]  
 
 
 
Автор Сообщение

МихаНЕзатор

[] 

Название: Балерина
Оригинальное название: Ballerina
Год выпуска: 2016
Страна: Франция, Канада
Жанр: Мультфильм, мюзикл, приключения, семейный, полнометражный

В ролях: Элль Фэннинг, Дэйн ДеХаан, Мэдди Зиглер, Карли Рэй Джепсен, Камилль Коттен, Элана Дункельман, Джули Ханер, Кэйси Чейз, Шошана Спелинг, Лорен Морель
Режиссёр: Эрик Саммер, Эрик Уорин

Описание: Сказочно красивый Париж 1884 года. Обычная девочка из сиротского приюта мечтает только об одном — стать знаменитой балериной. Впереди ее ждет самое волшебное приключение всей ее жизни. И ничто не сможет встать у нее на пути.


Автор рипа: Alex_A

Продолжительность: 01:29:23
Перевод: Дублированный [iTunes]
Субтитры: Отсутствуют

Качество: BDRip 1080p
Формат: MKV
Видео кодек: x265@10bit
Аудио кодек: AC3, DTS
Видео: 1920x804, 24,000 fps, HEVC, ~2838 kbps, 10bit
Аудио: Rus, 48 kHz/16-bit, AC3 5.1, ~384 kbps | Дубляж
Аудио: Ukr, 48 kHz/16-bit, AC3 5.1, ~384 kbps | Дубляж
Аудио: Fra, 48 kHz/24-bit, DTS 5.1, ~1509 kbps | Оригинал
Навигация по главам: Присутствует

АНОНСЫ ПОПУЛЯРНЫХ РАЗДАЧ
- H.265/HEVC (High Efficiency Video Coding) - это новый стандарт кодирования видео.
- Стандарт H.265/HEVC является логическим продолжением стандарта H.264/AVC (Advanced Video Coding), и характеризуется более эффективными алгоритмами сжатия, а также поддержкой высокого разрешения вплоть до 8K UHD (8192x4320). Первая версия стандарта H.265 была опубликована в начале 2013 года.
- Рипы в фомате HEVC поддерживается не всеми аппаратными проигрывателями.
- Для корректного воспроизведения может потребоваться обновление ПО.
- Владельцам несовместимого железа просьба не беспокоить, есть альтернативные релизы.
Общее
Уникальный идентификатор : 253874429819787959838116041398596558668 (0xBEFE6FC8525AD707BA4E413DDC4E5F4C)
Полное имя : E:HEVCBallerina (2016)Ballerina.2016.1080p.iTunes_HEVCCLUB.mkv
Формат : Matroska
Версия формата : Version 4 / Version 2
Размер файла : 3,20 Гбайт
Продолжительность : 1 ч. 29 м.
Общий поток : 5091 Кбит/сек
Название фильма : Ballerina (2016) - HEVC.CLUB
Дата кодирования : UTC 2017-04-15 18:58:46
Программа кодирования : mkvmerge v10.0.0 ('To Drown In You') 64bit
Библиотека кодирования : libebml v1.3.4 + libmatroska v1.4.5
Обложка : Yes
Attachments : cover.jpg

Видео
Идентификатор : 1
Формат : HEVC
Формат/Информация : High Efficiency Video Coding
Профиль формата : Main 10@L4.1@High
Идентификатор кодека : V_MPEGH/ISO/HEVC
Продолжительность : 1 ч. 29 м.
Битрейт : 2838 Кбит/сек
Ширина : 1920 пикселей
Высота : 804 пикселя
Соотношение сторон : 2,40:1
Режим частоты кадров : Постоянный
Частота кадров : 24,000 кадра/сек
Цветовое пространство : YUV
Субдискретизация насыщенности : 4:2:0
Битовая глубина : 10 бит
Бит/(Пиксели*Кадры) : 0.077
Размер потока : 1,77 Гбайт (55%)
Заголовок : HEVC.CLUB
Библиотека кодирования : x265 2.3+30-c7b7c736696f:[Windows][GCC 6.3.0][64 bit] 10bit
Настройки программы : cpuid=1173503 / frame-threads=3 / numa-pools=8 / wpp / no-pmode / no-pme / no-psnr / ssim / log-level=2 / input-csp=1 / input-res=1920x804 / interlace=0 / total-frames=0 / level-idc=41 / high-tier=1 / uhd-bd=0 / ref=6 / no-allow-non-conformance / repeat-headers / annexb / aud / hrd / info / hash=0 / no-temporal-layers / open-gop / min-keyint=23 / keyint=250 / bframes=10 / b-adapt=2 / b-pyramid / bframe-bias=0 / rc-lookahead=60 / lookahead-slices=1 / scenecut=40 / no-intra-refresh / ctu=64 / min-cu-size=8 / no-rect / no-amp / max-tu-size=32 / tu-inter-depth=3 / tu-intra-depth=3 / limit-tu=0 / rdoq-level=1 / dynamic-rd=2.00 / signhide / no-tskip / nr-intra=0 / nr-inter=0 / no-constrained-intra / no-strong-intra-smoothing / max-merge=2 / limit-refs=3 / no-limit-modes / me=1 / subme=7 / merange=64 / temporal-mvp / weightp / weightb / no-analyze-src-pics / deblock=-3:-3 / no-sao / no-sao-non-deblock / rd=4 / no-early-skip / no-rskip / no-fast-intra / no-tskip-fast / no-cu-lossless / no-b-intra / rdpenalty=0 / psy-rd=3.00 / psy-rdoq=2.00 / no-rd-refine / analysis-mode=0 / no-lossless / cbqpoffs=0 / crqpoffs=0 / rc=crf / crf=22.0 / qcomp=0.90 / qpstep=6 / stats-write=0 / stats-read=0 / vbv-maxrate=50000 / vbv-bufsize=50000 / vbv-init=0.9 / crf-max=0.0 / crf-min=0.0 / ipratio=1.50 / pbratio=1.00 / aq-mode=1 / aq-strength=0.80 / no-cutree / zone-count=0 / no-strict-cbr / qg-size=32 / no-rc-grain / qpmax=69 / qpmin=0 / sar=1 / overscan=0 / videoformat=5 / range=0 / colorprim=2 / transfer=2 / colormatrix=1 / chromaloc=0 / display-window=0 / max-cll=0,0 / min-luma=0 / max-luma=1023 / log2-max-poc-lsb=8 / vui-timing-info / vui-hrd-info / slices=1 / opt-qp-pps / opt-ref-list-length-pps / no-multi-pass-opt-rps / scenecut-bias=0.05 / no-opt-cu-delta-qp / aq-motion / no-hdr / no-hdr-opt / refine-level=5 / no-limit-sao
Default : Да
Forced : Да
Цветовой диапазон : Limited
Коэффициенты матрицы : BT.709

Аудио #1
Идентификатор : 2
Формат : AC-3
Формат/Информация : Audio Coding 3
Расширение режима : CM (complete main)
Параметр Endianness формата : Big
Идентификатор кодека : A_AC3
Продолжительность : 1 ч. 29 м.
Вид битрейта : Постоянный
Битрейт : 384 Кбит/сек
Каналы : 6 каналов
Расположение каналов : Front: L C R, Side: L R, LFE
Частота : 48,0 КГц
Частота кадров : 31,250 кадров/сек (1536 spf)
Битовая глубина : 16 бит
Метод сжатия : С потерями
Размер потока : 247 Мбайт (8%)
Заголовок : Dub [iTunes]
Язык : Russian
Default : Да
Forced : Нет

Аудио #2
Идентификатор : 3
Формат : AC-3
Формат/Информация : Audio Coding 3
Расширение режима : CM (complete main)
Параметр Endianness формата : Big
Идентификатор кодека : A_AC3
Продолжительность : 1 ч. 29 м.
Вид битрейта : Постоянный
Битрейт : 384 Кбит/сек
Каналы : 6 каналов
Расположение каналов : Front: L C R, Side: L R, LFE
Частота : 48,0 КГц
Частота кадров : 31,250 кадров/сек (1536 spf)
Битовая глубина : 16 бит
Метод сжатия : С потерями
Размер потока : 247 Мбайт (8%)
Заголовок : Dub [iTunes]
Язык : Ukrainian
Default : Нет
Forced : Нет

Аудио #3
Идентификатор : 4
Формат : DTS
Формат/Информация : Digital Theater Systems
Режим : 16
Параметр Endianness формата : Big
Идентификатор кодека : A_DTS
Продолжительность : 1 ч. 29 м.
Вид битрейта : Постоянный
Битрейт : 1509 Кбит/сек
Каналы : 6 каналов
Расположение каналов : Front: L C R, Side: L R, LFE
Частота : 48,0 КГц
Частота кадров : 93,750 кадра/сек (512 spf)
Битовая глубина : 24 бит
Метод сжатия : С потерями
Размер потока : 965 Мбайт (29%)
Заголовок : Original
Язык : French
Default : Нет
Forced : Нет

Меню
00:00:00.000 : en:00:00:00.000
00:04:54.000 : en:00:04:54.000
00:10:58.292 : en:00:10:58.292
00:13:54.125 : en:00:13:54.125
00:18:00.875 : en:00:18:00.875
00:23:18.750 : en:00:23:18.750
00:28:03.542 : en:00:28:03.542
00:32:55.000 : en:00:32:55.000
00:36:14.458 : en:00:36:14.458
00:41:19.833 : en:00:41:19.833
00:44:54.708 : en:00:44:54.708
00:50:25.000 : en:00:50:25.000
00:56:41.792 : en:00:56:41.792
01:02:39.458 : en:01:02:39.458
01:08:48.750 : en:01:08:48.750
01:13:12.667 : en:01:13:12.667
01:17:43.958 : en:01:17:43.958
01:22:49.917 : en:01:22:49.917



Скачать Балерина.Ballerina.(Эрик.Саммер.Эрик.Уорин).[2016.Мультфильм.мюзикл.приключения.семейный.BDRip-HEVC].[1080p].[Dub.Rus.Ukr.(лицензия.iTunes)]+[Fre].torrent без регистрации
Золото ЗОЛОТАЯ РАЗДАЧА! СКАЧАННОЕ НЕ ЗАСЧИТЫВАЕТСЯ! Золото
Дата: Зарегистрирован   [ Тип: внутренний ] Как тут cкачать?
MAGNET ссылка
MAGNET ссылка


Скачать .torrent

17 KB

Статус: проверено DHT
Скачан: торрент - 112 раз, раздача полностью - 140 раз
Размер: 3,2 GB
Оценка:  5 (Голосов: 1)
Поблагодарили: 2
Поделиться ссылкой на эту раздачу с друзьями:
В контактеFacebookОдноклассникиTwitterLivejournalМой МирLiveinternet
 

 
Показать сообщения:    


Вы не можете начинать темы
Вы не можете отвечать на сообщения
Вы не можете редактировать свои сообщения
Вы не можете удалять свои сообщения
Вы не можете голосовать в опросах
Вы не можете прикреплять файлы к сообщениям
Вы можете скачивать файлы