Loading...
Error

Скачать Теория большого взрыва / The Big Bang Theory (11x01-15 из 24) (Марк Сендроуски и др.) [2017, ситком, комедия, HDTV] [1080p] [MVO (IdeaFilm)]+[Eng] торрент без регистрации

Статистика раздачи
Размер:  17,59 GB   |    Скачан:  31 раз
Сидов:  1  [  0 KB/s  ]  
 
 
 
Автор Сообщение

МихаНЕзатор

[] 

Информация о фильме
Название: Теория большого взрыва
Оригинальное название: The Big Bang Theory
Год выпуска: 2017
Жанр: ситком, комедия
Режиссер: Марк Сендроуски, Питер Чакос, Энтони Джозеф Рич

В ролях: Джонни Галэки, Джим Парсонс, Кейли Куоко, Саймон Хелберг, Кунал Найяр, Майем Биалик, Мелисса Рауш, Кэрол Энн Сьюзи, Кевин Суссман, Арти Манн, Брайан Джордж, Элис Эмтер, Сара Гилберт, Джон Росс Боуи, Уил Уитон, Лори Меткаф, Верни Уотсон-Джонсон, Кристин Барански, Джошуа Малина, Кейси Сэндер, Кэти Леклерк

О фильме: Сюжет описывает житейские ситуации четырёх главных героев, друзей-физиков, работающих в Калтехе. Занятые наукой, все они очень наивны в своих представлениях. Особенную проблему для них представляет общение с противоположным полом и налаживание личной жизни. Четверо друзей живут не горюют до тех пор, пока в квартиру напротив не заселяется очаровательная блондинка Пэнни, которая впоследствии станет главным локомотивом, который выведет парней на новый уровень их жизни, станет обязательным звеном в этой четверке и добавит в эту компанию больше ярких жизненных красок...



Релиз от: IdeaFilm

Выпущено: США, Chuck Lorre Productions, Warner Bros. Television
Продолжительность: 00:25:00
Перевод: Профессиональный многоголосый (IdeaFilm)

Файл
Кодек: H.264
Качество: HDTV (1080p)
Видео: MPEG-4 AVC, 10 МБ/с, 1920x1080
Аудио: Русский (AC3, 2 ch, 192 Кбит/с), английский (AC3, 2 ch, 384 Кбит/с)

АНОНСЫ ПОПУЛЯРНЫХ РАЗДАЧ


Торрент обновлён, добавлена 15-я серия!

Общее
Уникальный идентификатор : 252599542689170489884221700678443682401 (0xBE08E6FE7792B598BB30FEBEC0094A61)
Полное имя : E:ЗагрузкиThe.Big.Bang.Theory.S11.HDTV.1080pThe.Big.Bang.Theory.S11E03.HDTV.1080p-IDEAFILM.mkv
Формат : Matroska
Версия формата : Version 4 / Version 2
Размер файла : 1,16 Гбайт
Продолжительность : 21 м.
Общий поток : 7851 Кбит/сек
Дата кодирования : UTC 2017-10-10 14:57:19
Программа кодирования : mkvmerge v12.0.0 ('Trust / Lust') 64bit
Библиотека кодирования : libebml v1.3.4 + libmatroska v1.4.5

Видео
Идентификатор : 1
Формат : AVC
Формат/Информация : Advanced Video Codec
Профиль формата : Main@L4.1
Параметр CABAC формата : Да
Параметр ReFrames формата : 3 кадра
Идентификатор кодека : V_MPEG4/ISO/AVC
Продолжительность : 21 м.
Битрейт : 6846 Кбит/сек
Ширина : 1920 пикселей
Высота : 1080 пикселей
Соотношение сторон : 16:9
Режим частоты кадров : Постоянный
Частота кадров : 23,976 (24000/1001) кадра/сек
Стандарт вещания : NTSC
Цветовое пространство : YUV
Субдискретизация насыщенности : 4:2:0
Битовая глубина : 8 бит
Тип развёртки : Прогрессивная
Бит/(Пиксели*Кадры) : 0.138
Размер потока : 1,01 Гбайт (87%)
Язык : English
Default : Да
Forced : Нет
Цветовой диапазон : Limited
Основные цвета : BT.709
Характеристики трансфера : BT.709
Коэффициенты матрицы : BT.709

Аудио #1
Идентификатор : 2
Формат : AC-3
Формат/Информация : Audio Coding 3
Расширение режима : CM (complete main)
Параметр Endianness формата : Big
Идентификатор кодека : A_AC3
Продолжительность : 21 м.
Вид битрейта : Постоянный
Битрейт : 384 Кбит/сек
Каналы : 6 каналов
Расположение каналов : Front: L C R, Side: L R, LFE
Частота : 48,0 КГц
Частота кадров : 31,250 кадров/сек (1536 spf)
Метод сжатия : С потерями
Размер потока : 58,3 Мбайт (5%)
Заголовок : IDEAFILM
Язык : Russian
Default : Да
Forced : Нет

Аудио #2
Идентификатор : 3
Формат : AC-3
Формат/Информация : Audio Coding 3
Расширение режима : CM (complete main)
Параметр Endianness формата : Big
Идентификатор кодека : A_AC3
Продолжительность : 20 м.
Вид битрейта : Постоянный
Битрейт : 640 Кбит/сек
Каналы : 6 каналов
Расположение каналов : Front: L C R, Side: L R, LFE
Частота : 48,0 КГц
Частота кадров : 31,250 кадров/сек (1536 spf)
Метод сжатия : С потерями
Задержка видео : 40 с.
Размер потока : 94,1 Мбайт (8%)
Язык : English
Default : Нет
Forced : Нет



Скачать Теория.большого.взрыва.The.Big.Bang.Theory.(11x01-15.из.24).(Марк.Сендроуски.и.др.).[2017.ситком.комедия.HDTV].[1080p].[MVO.(IdeaFilm)]+[Eng].torrent без регистрации
Золото ЗОЛОТАЯ РАЗДАЧА! СКАЧАННОЕ НЕ ЗАСЧИТЫВАЕТСЯ! Золото
Дата: Зарегистрирован   [ Тип: внутренний ] Как тут cкачать?
MAGNET ссылка
MAGNET ссылка


Скачать .torrent

90 KB

Статус: проверено DHT
Скачан: торрент - 31 раз, раздача полностью - 0 раз
Размер: 17,59 GB
Оценка:  - (Голосов: 0)
Поблагодарили: 0
Поделиться ссылкой на эту раздачу с друзьями:
В контактеFacebookОдноклассникиTwitterLivejournalМой МирLiveinternet
 

 
Показать сообщения:    


Вы не можете начинать темы
Вы не можете отвечать на сообщения
Вы не можете редактировать свои сообщения
Вы не можете удалять свои сообщения
Вы не можете голосовать в опросах
Вы не можете прикреплять файлы к сообщениям
Вы можете скачивать файлы