Loading...
Error

Скачать Тачки 3 / Cars 3 (Брайан Фи) [2017, мультфильм, комедия, приключения, семейный, WEB-DL] [1080p] [Ukr DUB] [Лицензия] торрент без регистрации

Статистика раздачи
Размер:  3,62 GB   |    Скачан:  168 раз
Сидов:  1  [  0 KB/s  ]  
 
 
 
Автор Сообщение

leon030982

[] 

ТАЧКИ 3 / Cars 3


Год выхода: 2017
Жанр: мультфильм, комедия, приключения, семейный
Выпущено: США
Продолжительность: 01:42:03
Перевод: Украинский (дублированный) [Лицензия]

Режиссер: Брайан Фи

Роли озвучивали: Оуэн Уилсон, Кристела Алонзо, Крис Купер, Нэйтан Филлион, Ларри-кабельщик, Арми Хаммер, Рэй Мальоцци, Тони Шэлуб, Бонни Хант, Лиа ДеЛария

О фильме: Встречайте самого знаменитого гонщика всех времен, легенду гоночного трека Молнию Маккуина!

Герой все еще продолжает показывать лучшие результаты на всех турнирах, однако победы даются ему не так легко, а конкуренция становится все жестче. Молнию Маккуина ждут захватывающие приключения, где он встретит новых друзей, а также поймет, что не только скорость и мощность мотора делают гонщика чемпионом.



Качество: WEB-DL 1080p
Формат: MKV
Видео: AVC, 4378 kb/s, 1920x804, 23,976 fps
Аудио: 48.0 KHz, AC3, 6 ch, 384 Kbps - Ukr DUB
Аудио: 48.0 KHz, AC3, 2 ch, 192 Kbps - Eng

Релиз --
General
Unique ID : 174410377954949799453511972188789403647 (0x8336378A22BC7307A0136531EDFFEFFF)
Complete name : E:\Cars 3 (2017) WEB-DL 1080p [UKR_ENG] [Hurtom].mkv
Format : Matroska
Format version : Version 4 / Version 2
File size : 3.62 GiB
Duration : 1h 42mn
Overall bit rate : 5 055 Kbps
Encoded date : UTC 2017-10-15 16:54:48
Writing application : mkvmerge v17.0.0 ('Be Ur Friend') 64-bit
Writing library : libebml v1.3.5 + libmatroska v1.4.8

Video
ID : 1
Format : AVC
Format/Info : Advanced Video Codec
Format profile : High@L4
Format settings, CABAC : Yes
Format settings, ReFrames : 5 frames
Codec ID : V_MPEG4/ISO/AVC
Duration : 1h 42mn
Bit rate : 4 378 Kbps
Width : 1 920 pixels
Height : 804 pixels
Display aspect ratio : 2.40:1
Frame rate mode : Constant
Frame rate : 23.976 fps
Color space : YUV
Chroma subsampling : 4:2:0
Bit depth : 8 bits
Scan type : Progressive
Bits/(Pixel*Frame) : 0.118
Stream size : 3.13 GiB (87%)
Language : English
Default : Yes
Forced : No
Color range : Limited
Color primaries : BT.709
Transfer characteristics : BT.709
Matrix coefficients : BT.709

Audio #1
ID : 2
Format : AC-3
Format/Info : Audio Coding 3
Mode extension : CM (complete main)
Format settings, Endianness : Big
Codec ID : A_AC3
Duration : 1h 42mn
Bit rate mode : Constant
Bit rate : 384 Kbps
Channel(s) : 6 channels
Channel positions : Front: L C R, Side: L R, LFE
Sampling rate : 48.0 KHz
Compression mode : Lossy
Stream size : 281 MiB (8%)
Title : AC3 5.1 @ 384 kbps
Language : Ukrainian
Default : Yes
Forced : Yes

Audio #2
ID : 3
Format : AC-3
Format/Info : Audio Coding 3
Mode extension : CM (complete main)
Format settings, Endianness : Big
Codec ID : A_AC3
Duration : 1h 42mn
Bit rate mode : Constant
Bit rate : 192 Kbps
Channel(s) : 2 channels
Channel positions : Front: L R
Sampling rate : 48.0 KHz
Compression mode : Lossy
Delay relative to video : 100ms
Stream size : 141 MiB (4%)
Title : AC3 2.0 @ 192 kbps - Original, Line
Language : English
Default : No
Forced : No




Скачать Тачки.3.Cars.3.(Брайан.Фи).[2017.мультфильм.комедия.приключения.семейный.WEB-DL].[1080p].[Ukr.DUB].[Лицензия].torrent без регистрации
Золото ЗОЛОТАЯ РАЗДАЧА! СКАЧАННОЕ НЕ ЗАСЧИТЫВАЕТСЯ! Золото
Дата: Зарегистрирован   [ Тип: внутренний ] Как тут cкачать?
MAGNET ссылка
MAGNET ссылка


Скачать .torrent

19 KB

Статус: проверено DHT
Скачан: торрент - 168 раз, раздача полностью - 142 раз
Размер: 3,62 GB
Оценка:  5 (Голосов: 2)
Поблагодарили: 4
Поделиться ссылкой на эту раздачу с друзьями:
В контактеFacebookОдноклассникиTwitterLivejournalМой МирLiveinternet
 

 

bonatursky

[] 

Моя вдячність. Дуже гарний переклад.
 

Jay911

[] 

Класс! ay
 
Показать сообщения:    


Вы не можете начинать темы
Вы не можете отвечать на сообщения
Вы не можете редактировать свои сообщения
Вы не можете удалять свои сообщения
Вы не можете голосовать в опросах
Вы не можете прикреплять файлы к сообщениям
Вы можете скачивать файлы