Loading...
Error

Скачать Как избежать наказания за убийство / How to Get Away with Murder (Сезон 04, серии 01-13 из 15) (Билл Д’Элиа, Майкл Оффер) [2017, Драма, криминал, детектив, WEBRip] [MVO] (Profix Media) торрент без регистрации

Статистика раздачи
Размер:  5,33 GB   |    Скачан:  34 раза
Сидов:  1  [  0 KB/s  ]  
 
 
 
Автор Сообщение

leon030982

[] 

Как избежать наказания за убийство / How to Get Away with Murder


Год выпуска: 2017
Страна: США
Жанр: Драма, криминал, детектив
Продолжительность: ~ 00:44:00
Перевод: Профессиональный (многоголосый закадровый) | Profix Media

Режиссёр: Билл Д’Элиа, Майкл Оффер

В ролях: Виола Дэвис, Чарли Вебер, Карен Кабрера, Билли Браун, Альфред Энок, Джек Фалахи, Кэти Финдлей, Аджа Наоми Кинг и др.

Описание: После смерти Уэса, Эннализ Киттинг и ее команда пытаются прийти в себя и вернуть жизнь на круги свая. Но получится-ли, если у некогда самого лучшего адвоката хотят забрать лицензию практики, и, возможно, этому никак не удастся помешать?



Качество: WEBRip
Формат: AVI
Видео: XviD, ~ 1000 kbps, 720x400, 23.976 fps
Аудио: MP3, 48,0 КГц, 2 ch, 256 kbps -
Субтитры: отсутствуют
General
Complete name : E:\How.to.Get.Away.With.Murder.S04.WEBRip.Profix.Media\How.to.Get.Away.With.Murder.S04E01.WEBRip.Profix.Media.avi
Format : AVI
Format/Info : Audio Video Interleave
File size : 363 MiB
Duration : 43 min 39 s
Overall bit rate : 1 161 kb/s
Writing application : Lavf57.25.100

Video
ID : 0
Format : xvid
Codec ID : xvid
Duration : 43 min 39 s
Bit rate : 850 kb/s
Width : 720 pixels
Height : 400 pixels
Display aspect ratio : 16:9
Frame rate : 23.976 (24000/1001) FPS
Scan type : Progressive
Bits/(Pixel*Frame) : 0.123
Stream size : 266 MiB (73%)
Title : Video Track

Audio
ID : 1
Format : MPEG Audio
Format version : Version 1
Format profile : Layer 3
Format settings : Joint stereo
Mode : Joint stereo
Codec ID : 55
Codec ID/Hint : MP3
Duration : 43 min 39 s
Bit rate mode : Constant
Bit rate : 256 kb/s
Channel(s) : 2 channels
Sampling rate : 48.0 kHz
Compression mode : Lossy
Stream size : 80.0 MiB (22%)
Alignment : Aligned on interleaves
Title : Audio Track
Когда раздача ведётся путём добавления новых серий, при каждом добавлении создётся новый торрент. Чтобы начать докачку новой серии, пользователям необходимо сделать следующее:
(1) остановить скачивание,
(2) удалить старый торрент у себя из клиента (старые серии удалять не надо),
(3) скачать новый торрент и запустить его у себя в клиенте вместо старого, при этом указать клиенту путь в старую папку, куда и должно происходить скачивание новых серий.
Ваш клиент при этом должен произвести хеширование (проверку) старой папки (если не производит сам - помогите ему сделать это), и будет докачивать только те серии, которых у вас ещё нет. Старые серии при этом не удаляются, а продолжают раздаваться!
Eсли вы уже удалили старые серии, то предотвратить повторную закачку старых серий можно, отжав галочку в соответсвующих местах при запуске нового торрента. По возможности, желательно не удалять старые серии как можно дольше, чтобы релизёр не столько продолжал раздавать старые серии, а смог сконцентрироваться на новых.



Скачать Как.избежать.наказания.за.убийство.How.to.Get.Away.with.Murder.(Сезон.04.серии.01-13.из.15).(Билл.Д’Элиа.Майкл.Оффер).[2017.Драма.криминал.детектив.WEBRip].[MVO].(Profix.Media).torrent без регистрации
Золото ЗОЛОТАЯ РАЗДАЧА! СКАЧАННОЕ НЕ ЗАСЧИТЫВАЕТСЯ! Золото
Дата: Зарегистрирован   [ Тип: внутренний ] Как тут cкачать?
MAGNET ссылка
MAGNET ссылка


Скачать .torrent

15 KB

Статус: проверено DHT
Скачан: торрент - 34 раз, раздача полностью - 3 раз
Размер: 5,33 GB
Оценка:  - (Голосов: 0)
Поблагодарили: 0
Поделиться ссылкой на эту раздачу с друзьями:
В контактеFacebookОдноклассникиTwitterLivejournalМой МирLiveinternet
 

 
Показать сообщения:    


Вы не можете начинать темы
Вы не можете отвечать на сообщения
Вы не можете редактировать свои сообщения
Вы не можете удалять свои сообщения
Вы не можете голосовать в опросах
Вы не можете прикреплять файлы к сообщениям
Вы можете скачивать файлы