Loading...
Error

Скачать Граница / Рубеж / Frontier (Сезон 02, серии 01-06 из 06) (Брэд Пэйтон, Джон Ватчер, Келли Мэкин) [2017, Историческая драма, приключения, HDTVRip] [MVO] (NewStudio) торрент без регистрации

Статистика раздачи
Размер:  3,22 GB   |    Скачан:  15 раз
Сидов:  1  [  0 KB/s  ]  
 
 
 
Автор Сообщение

leon030982

[] 


Граница / Рубеж / Frontier



Год выпуска: 2017
Страна: Канада/США, Discovery/Netflix
Жанр: Историческая драма, приключения
Продолжительность: ~ 00:45:00
Перевод: Профессиональный (многоголосый закадровый) | NewStudio

Режиссёр: Брэд Пэйтон, Джон Ватчер, Келли Мэкин

В ролях: Диана Бентли, Бриэнн Хилл, Джейсон Момоа, Джессика Мэттен, Пол Ивэн Уилсон, Майкл Патрик, Уильям Белло, Пол Фауте, Эван Джонигкейт, Кристиан МакКэй, Лайла Портер Фоллоус и др.

Описание: Сериал расскажет о жестокой и кровавой борьбе за богатство и власть в торговле пушниной на просторах Северной Америки в XVIII веке. Бизнес приходится вести в очень сложных условиях жестокого противостояния коренных племён и понаехавших на континент европейцев.



Качество: HDTVRip
Формат: AVI
Видео: XviD, ~ 1400 kbps, 720x400, 23.976 fps
Аудио 1: MP3, 48,0 КГц, 2 ch, 128 kbps - Rus
Аудио 2: MP3, 48,0 КГц, 2 ch, 128 kbps - Eng
Субтитры: отсутствуют

Торент обновлен! добавлена 6-я серии
General
Complete name : E:\Frontier.2016.s02e01.HDTVRip.NewStudio.avi
Format : AVI
Format/Info : Audio Video Interleave
File size : 550 MiB
Duration : 45 min 58 s
Overall bit rate : 1 673 kb/s
Writing application : VirtualDubMod 1.5.10.2 (build 2540/release)
Writing library : VirtualDubMod build 2540/release

Video
ID : 0
Format : MPEG-4 Visual
Format profile : Advanced Simple@L5
Format settings : BVOP2 / QPel
Format settings, BVOP : 2
Format settings, QPel : Yes
Format settings, GMC : No warppoints
Format settings, Matrix : Default (MPEG)
Muxing mode : Packed bitstream
Codec ID : XVID
Codec ID/Hint : XviD
Duration : 45 min 58 s
Bit rate : 1 340 kb/s
Width : 720 pixels
Height : 400 pixels
Display aspect ratio : 16:9
Frame rate : 23.976 (24000/1001) FPS
Color space : YUV
Chroma subsampling : 4:2:0
Bit depth : 8 bits
Scan type : Progressive
Compression mode : Lossy
Bits/(Pixel*Frame) : 0.194
Stream size : 440 MiB (80%)
Writing library : XviD 73

Audio #1
ID : 1
Format : MPEG Audio
Format version : Version 1
Format profile : Layer 3
Format settings : Joint stereo / MS Stereo
Mode : Joint stereo
Mode extension : MS Stereo
Codec ID : 55
Codec ID/Hint : MP3
Duration : 45 min 58 s
Bit rate mode : Constant
Bit rate : 128 kb/s
Channel(s) : 2 channels
Sampling rate : 48.0 kHz
Compression mode : Lossy
Stream size : 42.1 MiB (8%)
Alignment : Aligned on interleaves

Audio #2
ID : 2
Format : MPEG Audio
Format version : Version 1
Format profile : Layer 3
Format settings : Joint stereo
Mode : Joint stereo
Codec ID : 55
Codec ID/Hint : MP3
Duration : 45 min 58 s
Bit rate mode : Constant
Bit rate : 128 kb/s
Channel(s) : 2 channels
Sampling rate : 48.0 kHz
Compression mode : Lossy
Stream size : 42.1 MiB (8%)
Alignment : Aligned on interleaves
Writing library : LAME3.99r
Encoding settings : -m j -V 4 -q 2 -lowpass 17 -b 128
Когда раздача ведётся путём добавления новых серий, при каждом добавлении создётся новый торрент. Чтобы начать докачку новой серии, пользователям необходимо сделать следующее:
(1) остановить скачивание,
(2) удалить старый торрент у себя из клиента (старые серии удалять не надо),
(3) скачать новый торрент и запустить его у себя в клиенте вместо старого, при этом указать клиенту путь в старую папку, куда и должно происходить скачивание новых серий.
Ваш клиент при этом должен произвести хеширование (проверку) старой папки (если не производит сам - помогите ему сделать это), и будет докачивать только те серии, которых у вас ещё нет. Старые серии при этом не удаляются, а продолжают раздаваться!
Eсли вы уже удалили старые серии, то предотвратить повторную закачку старых серий можно, отжав галочку в соответсвующих местах при запуске нового торрента. По возможности, желательно не удалять старые серии как можно дольше, чтобы релизёр не столько продолжал раздавать старые серии, а смог сконцентрироваться на новых.



Скачать Граница.Рубеж.Frontier.(Сезон.02.серии.01-06.из.06).(Брэд.Пэйтон.Джон.Ватчер.Келли.Мэкин).[2017.Историческая.драма.приключения.HDTVRip].[MVO].(NewStudio).torrent без регистрации
Золото ЗОЛОТАЯ РАЗДАЧА! СКАЧАННОЕ НЕ ЗАСЧИТЫВАЕТСЯ! Золото
Дата: Зарегистрирован   [ Тип: внутренний ] Как тут cкачать?
MAGNET ссылка
MAGNET ссылка


Скачать .torrent

17 KB

Статус: проверено DHT
Скачан: торрент - 15 раз, раздача полностью - 5 раз
Размер: 3,22 GB
Оценка:  - (Голосов: 0)
Поблагодарили: 1
Поделиться ссылкой на эту раздачу с друзьями:
В контактеFacebookОдноклассникиTwitterLivejournalМой МирLiveinternet
 

 
Показать сообщения:    


Вы не можете начинать темы
Вы не можете отвечать на сообщения
Вы не можете редактировать свои сообщения
Вы не можете удалять свои сообщения
Вы не можете голосовать в опросах
Вы не можете прикреплять файлы к сообщениям
Вы можете скачивать файлы