Loading...
Error

Скачать Баллада о солдате (Григорий Чухрай) [1959, драма, мелодрама, военный, BDRip] [720p] торрент без регистрации

Статистика раздачи
Размер:  2,91 GB   |    Скачан:  14 раз
Сидов:  4  [  0 KB/s  ]  
 
 
 
Автор Сообщение

Marsianka

[] 

Страна: СССР
Производство: Мосфильм

Жанр: драма, мелодрама, военный
Год выпуска: 1959
Продолжительность: 01:27:56

Перевод: Не требуется
Cубтитры: нет
Оригинальная аудиодорожка: русский

Режиссер: Григорий Чухрай

В ролях:
Владимир Ивашов, Жанна Прохоренко, Антонина Максимова, Николай Крючков, Евгений Урбанский...
Об актёрах подробней

Описание:
Великая Отечественная война. Молодой 19-летний солдат Алеша Скворцов (Владимир Ивашов) совершает подвиг. Случайно попавшееся ему на глаза противотанковое ружье не только спасает ему жизнь, но и дает возможность подбить несколько машин противника. Бойца вызывают в командный блиндаж и обещают ему орден, но вчерашний школьник, мальчишка со светлым лицом и детским взглядом отказывается от почетной награды и просит взамен отпустить его в отпуск - повидаться с матерью. И теперь перед Алешей лежит дорога на родину, в свое село. Несколько дней без войны. Несколько дней на пути к дому. Он так и останется навеки 19-летним. Героем, отказавшимся от ордена ради того, чтобы в последний раз обнять маму.


Источник: BDRemux 1080p
Качество видео: BDRip 720p
Формат видео: MKV

Видео: 1280x932 (4:3), 23,976 fps, H264 ~ 4286 kbps avg, 0.150 bit/pixel
Аудио: 48 kHz, Dolby Digital AC3 5.1, 448 kbps

Раздача от:

Общее
Полное имя : Ballada.o.soldate.1959.BDRip720p_[New-team]_by_AVP_Studio.mkv
Формат : Matroska
Версия формата : Version 2
Размер файла : 2,91 Гбайт
Продолжительность : 1 ч. 27 м.
Общий поток : 4736 Кбит/сек
Дата кодирования : UTC 2017-10-24 23:15:07
Программа кодирования : mkvmerge v6.1.0 ('Old Devil') built on Mar 4 2013 09:10:42
Библиотека кодирования : libebml v1.3.0 + libmatroska v1.4.0

Видео
Идентификатор : 1
Формат : AVC
Формат/Информация : Advanced Video Codec
Профиль формата : High@L4.1
Параметр CABAC формата : Да
Параметр RefFrames формата : 8 кадров
Идентификатор кодека : V_MPEG4/ISO/AVC
Продолжительность : 1 ч. 27 м.
Битрейт : 4286 Кбит/сек
Ширина : 1280 пикселей
Высота : 932 пикселя
Соотношение сторон : 4:3
Режим частоты кадров : Постоянный
Частота кадров : 23,976 (24000/1001) кадра/сек
Цветовое пространство : YUV
Субдискретизация насыщенности : 4:2:0
Битовая глубина : 8 бит
Тип развёртки : Прогрессивная
Бит/(Пиксели*Кадры) : 0.150
Размер потока : 2,58 Гбайт (89%)
Библиотека кодирования : x264 core 130 r2273 b3065e6
Настройки программы : cabac=1 / ref=8 / deblock=1:-3:-3 / analyse=0x3:0x133 / me=umh / subme=10 / psy=1 / psy_rd=1.00:0.00 / mixed_ref=1 / me_range=32 / chroma_me=1 / trellis=2 / 8x8dct=1 / cqm=0 / deadzone=21,11 / fast_pskip=1 / chroma_qp_offset=-2 / threads=6 / lookahead_threads=1 / sliced_threads=0 / nr=0 / decimate=0 / interlaced=0 / bluray_compat=0 / constrained_intra=0 / bframes=8 / b_pyramid=2 / b_adapt=2 / b_bias=0 / direct=3 / weightb=1 / open_gop=0 / weightp=2 / keyint=240 / keyint_min=24 / scenecut=40 / intra_refresh=0 / rc=2pass / mbtree=0 / bitrate=4286 / ratetol=1.0 / qcomp=0.60 / qpmin=0 / qpmax=69 / qpstep=4 / cplxblur=20.0 / qblur=0.5 / ip_ratio=1.40 / pb_ratio=1.30 / aq=1:1.00
Default : Да
Forced : Нет

Аудио
Идентификатор : 2
Формат : AC-3
Формат/Информация : Audio Coding 3
Параметр Endianness формата : Big
Идентификатор кодека : A_AC3
Продолжительность : 1 ч. 27 м.
Вид битрейта : Постоянный
Битрейт : 448 Кбит/сек
Каналы : 6 каналов
Расположение каналов : Front: L C R, Side: L R, LFE
Частота : 48,0 КГц
Частота кадров : 31,250 кадров/сек (1536 SPF)
Битовая глубина : 16 бит
Метод сжатия : С потерями
Размер потока : 282 Мбайт (9%)
Default : Да
Forced : Нет



Скачать Баллада.о.солдате.(Григорий.Чухрай).[1959.драма.мелодрама.военный.BDRip].[720p].torrent без регистрации
Золото ЗОЛОТАЯ РАЗДАЧА! СКАЧАННОЕ НЕ ЗАСЧИТЫВАЕТСЯ! Золото
Дата: Зарегистрирован   [ Тип: внешний ] Как тут cкачать?
MAGNET ссылка
MAGNET ссылка


Скачать .torrent

16 KB

Статус: проверено DHT
Скачан: торрент - 14 раз, раздача полностью - 9 раз
Размер: 2,91 GB
Оценка:  - (Голосов: 0)
Поблагодарили: 1
Поделиться ссылкой на эту раздачу с друзьями:
В контактеFacebookОдноклассникиTwitterLivejournalМой МирLiveinternet
 

 
Показать сообщения:    


Вы не можете начинать темы
Вы не можете отвечать на сообщения
Вы не можете редактировать свои сообщения
Вы не можете удалять свои сообщения
Вы не можете голосовать в опросах
Вы не можете прикреплять файлы к сообщениям
Вы можете скачивать файлы