Loading...
Error

Скачать Всегда говори «ДА» / Yes Man (Пейтон Рид) [2008, комедия, WEB-DL] [1080p] [Open Matte] [Dub]x2+[AVO]x2+[Eng]x2+[Sub]x3 торрент без регистрации

Статистика раздачи
Размер:  13,67 GB   |    Скачан:  23 раза
Сидов:  1  [  0 KB/s  ]  
 
 
 
Автор Сообщение

Marsianka

[] 

Информация о фильме
Название: Всегда говори «ДА»
Оригинальное название: Yes Man
Год выхода: 2008
Жанр: комедия
Режиссер: Пейтон Рид
В ролях: Джим Керри, Зои Дешанель, Брэдли Купер, Джон Майкл Хиггинс, Риз Дэрби, Дэнни Мастерсон, Финола Флэнаган, Теренс Стэмп, Саша Александр, Молли Симс

О фильме:
Депрессивный главный герой всегда и всем говорил «нет» — например, друзьям, если они зовут куда-то. Но в один прекрасный день он заключает соглашение, по которому всегда должен отвечать «Да» на любое предложение…



Страна: США, Великобритания
Студия: Village Roadshow Pictures, Warner Bros. Pictures Co.
Продолжительность: 01:44:30
Профессиональный (дублированный) Blu-ray CEE + Авторский (одноголосый, закадровый) В.Королёв + Авторский (одноголосый, закадровый) А.Карповский
Файл
Качество: WEB-DL 1080p | Open Matte
Формат: Matroska
Видео: 1920x1080 at 23.976 fps, MPEG-4 AVC, ~12300 kbps avg
Аудио#1: Russian: 48 kHz, AC3, 3/2 (L,C,R,l,r) + LFE ch, ~640 kbps avg |Дубляж, Blu-ray CEE|
Аудио#2: Russian: 48 kHz, DTS, 3/2 (L,C,R,l,r) + LFE ch, ~1509 kbps avg |Авторский одноголосый, В.Королёв|
Аудио#3: Russian: 48 kHz, DTS, 3/2 (L,C,R,l,r) + LFE ch, ~1509 kbps avg |Авторский одноголосый, А.Карповский|
Аудио#4: Ukrainian: 48 kHz, AC3, 3/2 (L,C,R,l,r) + LFE ch, ~640 kbps avg |Дубляж, Blu-ray CEE|
Аудио#5: English: 48 kHz, DTS, 3/2 (L,C,R,l,r) + LFE ch, ~1509 kbps avg
Аудио#6: English: 48 kHz, E-AC3, 3/2 (L,C,R,l,r) + LFE ch, ~640 kbps avg
Субтитры: Russian (Captions, Full), Ukrainian (Captions), English (SDH, Full, Amazon)
***Исходник видео - WEB-DL Amazon.
***Релиз - spartanec163.
Фильм основан на биографической книге Дэнни Уоллеса, британского писателя, продюсера и журналиста, который провел 6 месяцев отвечая только «ДА». Сам писатель снялся в эпизодической роли в сцене «девишника».
Исполнители главных ролей, Джим Керри и Зои Дешанель, родились в один день, 17 января.
Джим Керри специально для роли стал изучать корейский язык с преподавателем Джоном Сонгом, чтобы в фильме реалистично показать высокий уровень владения этим иностранным языком.
Джим Керри отказался от «стандартного» гонорара за фильм и согласился на «процент» от сборов.
Рингтон на телефоне Карла и песня играющая, когда Карл едет на мотоцикле — это композиция группы Journey — «Separate Ways (Worlds Apart)".
Когда Пит звонит на телефон Карлу, а потом приходит к нему, Карл смотрит фильм «Пила: Игра на выживание» (2004).
Во время исполнения сцены в баре Джим Керри сломал три ребра.
Сцена драки возле бара происходит там же, где была драка с хулиганами в фильме «Брюс Всемогущий» (2003).
Джим Керри сам совершил прыжок с моста на тросе.
Прыжок на тросе Джим Керри выполнил с того же моста, что и герои сериала «Клиника» (2001-2010) в одной из серий.
Общее
Уникальный идентификатор : 246210093171277275690959327303473029851 (0xB93A56CF940B2730856DAE5C493FE2DB)
Полное имя : Yes.Man.2008.Open.Matte.1080p.WEB-DL.3xRus.Ukr.Eng.mkv
Формат : Matroska
Версия формата : Version 4 / Version 2
Размер файла : 13,7 Гбайт
Продолжительность : 1 ч. 44 м.
Режим общего битрейта : Переменный
Общий поток : 18,7 Мбит/сек
Название фильма : Yes.Man.2008.Open.Matte.1080p.WEB-DL.3xRus.Ukr.Eng-spartanec163
Дата кодирования : UTC 2017-10-28 14:06:49
Программа кодирования : mkvmerge v8.3.0 ('Over the Horizon') 64bit
Библиотека кодирования : libebml v1.3.1 + libmatroska v1.4.2

Видео
Идентификатор : 1
Формат : AVC
Формат/Информация : Advanced Video Codec
Профиль формата : High@L4.0
Параметр CABAC формата : Да
Параметр ReFrames формата : 4 кадра
Идентификатор кодека : V_MPEG4/ISO/AVC
Продолжительность : 1 ч. 44 м.
Вид битрейта : Переменный
Битрейт : 11,9 Мбит/сек
Максимальный битрейт : 15,0 Мбит/сек
Ширина : 1920 пикселей
Высота : 1080 пикселей
Соотношение сторон : 16:9
Режим частоты кадров : Постоянный
Частота кадров : 23,976 кадра/сек
Цветовое пространство : YUV
Субдискретизация насыщенности : 4:2:0
Битовая глубина : 8 бит
Тип развёртки : Прогрессивная
Бит/(Пиксели*Кадры) : 0.239
Размер потока : 8,69 Гбайт (64%)
Заголовок : WEB-DL 1080p (Amazon)
Язык : English
Default : Да
Forced : Нет
Основные цвета : BT.709
Характеристики трансфера : BT.709
Коэффициенты матрицы : BT.709

Аудио #1
Идентификатор : 2
Формат : AC-3
Формат/Информация : Audio Coding 3
Расширение режима : CM (complete main)
Параметр Endianness формата : Big
Идентификатор кодека : A_AC3
Продолжительность : 1 ч. 44 м.
Вид битрейта : Постоянный
Битрейт : 640 Кбит/сек
Каналы : 6 каналов
Расположение каналов : Front: L C R, Side: L R, LFE
Частота : 48,0 КГц
Битовая глубина : 16 бит
Метод сжатия : С потерями
Размер потока : 478 Мбайт (3%)
Заголовок : AC3 5.1 640Kbps (Дубляж - BluRay)
Язык : Russian
Default : Да
Forced : Нет

Аудио #2
Идентификатор : 3
Формат : DTS
Формат/Информация : Digital Theater Systems
Режим : 16
Параметр Endianness формата : Big
Идентификатор кодека : A_DTS
Продолжительность : 1 ч. 44 м.
Вид битрейта : Постоянный
Битрейт : 1509 Кбит/сек
Каналы : 6 каналов
Расположение каналов : Front: L C R, Side: L R, LFE
Частота : 48,0 КГц
Битовая глубина : 24 бит
Метод сжатия : С потерями
Размер потока : 1,10 Гбайт (8%)
Заголовок : DTS 5.1 1509Kbps (Авторский, одноголосый - В. Королёв)
Язык : Russian
Default : Нет
Forced : Нет

Аудио #3
Идентификатор : 4
Формат : DTS
Формат/Информация : Digital Theater Systems
Режим : 16
Параметр Endianness формата : Big
Идентификатор кодека : A_DTS
Продолжительность : 1 ч. 44 м.
Вид битрейта : Постоянный
Битрейт : 1509 Кбит/сек
Каналы : 6 каналов
Расположение каналов : Front: L C R, Side: L R, LFE
Частота : 48,0 КГц
Битовая глубина : 24 бит
Метод сжатия : С потерями
Размер потока : 1,10 Гбайт (8%)
Заголовок : DTS 5.1 1509Kbps (Авторский, одноголосый - А. Карповский)
Язык : Russian
Default : Нет
Forced : Нет

Аудио #4
Идентификатор : 5
Формат : AC-3
Формат/Информация : Audio Coding 3
Расширение режима : CM (complete main)
Параметр Endianness формата : Big
Идентификатор кодека : A_AC3
Продолжительность : 1 ч. 44 м.
Вид битрейта : Постоянный
Битрейт : 640 Кбит/сек
Каналы : 6 каналов
Расположение каналов : Front: L C R, Side: L R, LFE
Частота : 48,0 КГц
Битовая глубина : 16 бит
Метод сжатия : С потерями
Размер потока : 478 Мбайт (3%)
Заголовок : AC3 5.1 640Kbps (Дубляж - BluRay)
Язык : Ukrainian
Default : Нет
Forced : Нет

Аудио #5
Идентификатор : 6
Формат : DTS
Формат/Информация : Digital Theater Systems
Режим : 16
Параметр Endianness формата : Big
Идентификатор кодека : A_DTS
Продолжительность : 1 ч. 44 м.
Вид битрейта : Постоянный
Битрейт : 1510 Кбит/сек
Каналы : 6 каналов
Расположение каналов : Front: L C R, Side: L R, LFE
Частота : 48,0 КГц
Битовая глубина : 24 бит
Метод сжатия : С потерями
Размер потока : 1,10 Гбайт (8%)
Заголовок : DTS 5.1 1509Kbps (Оригинал - BluRay)
Язык : English
Default : Нет
Forced : Нет

Аудио #6
Идентификатор : 7
Формат : E-AC-3
Формат/Информация : Audio Coding 3
Параметр Endianness формата : Big
Идентификатор кодека : A_EAC3
Продолжительность : 1 ч. 44 м.
Вид битрейта : Постоянный
Битрейт : 640 Кбит/сек
Каналы : 6 каналов
Расположение каналов : Front: L C R, Side: L R, LFE
Частота : 48,0 КГц
Метод сжатия : С потерями
Размер потока : 478 Мбайт (3%)
Заголовок : E-AC3 5.1 640Kbps (Оригинал - Amazon)
Язык : English
Default : Нет
Forced : Нет

Текст #1
Идентификатор : 8
Формат : UTF-8
Идентификатор кодека : S_TEXT/UTF8
Идентификатор кодека/Информация : UTF-8 Plain Text
Заголовок : Captions
Язык : Russian
Default : Да
Forced : Нет

Текст #2
Идентификатор : 9
Формат : UTF-8
Идентификатор кодека : S_TEXT/UTF8
Идентификатор кодека/Информация : UTF-8 Plain Text
Заголовок : Full
Язык : Russian
Default : Нет
Forced : Нет

Текст #3
Идентификатор : 10
Формат : UTF-8
Идентификатор кодека : S_TEXT/UTF8
Идентификатор кодека/Информация : UTF-8 Plain Text
Заголовок : Captions
Язык : Ukrainian
Default : Нет
Forced : Нет

Текст #4
Идентификатор : 11
Формат : UTF-8
Идентификатор кодека : S_TEXT/UTF8
Идентификатор кодека/Информация : UTF-8 Plain Text
Заголовок : Full, SDH, Amazon
Язык : English
Default : Нет
Forced : Нет



Скачать Всегда.говори.«ДА».Yes.Man.(Пейтон.Рид).[2008.комедия.WEB-DL].[1080p].[Open.Matte].[Dub]x2+[AVO]x2+[Eng]x2+[Sub]x3.torrent без регистрации
Золото ЗОЛОТАЯ РАЗДАЧА! СКАЧАННОЕ НЕ ЗАСЧИТЫВАЕТСЯ! Золото
Дата: Зарегистрирован   [ Тип: внутренний ] Как тут cкачать?
MAGNET ссылка
MAGNET ссылка


Скачать .torrent

69 KB

Статус: проверено DHT
Скачан: торрент - 23 раз, раздача полностью - 3 раз
Размер: 13,67 GB
Оценка:  - (Голосов: 0)
Поблагодарили: 0
Поделиться ссылкой на эту раздачу с друзьями:
В контактеFacebookОдноклассникиTwitterLivejournalМой МирLiveinternet
 

 
Показать сообщения:    


Вы не можете начинать темы
Вы не можете отвечать на сообщения
Вы не можете редактировать свои сообщения
Вы не можете удалять свои сообщения
Вы не можете голосовать в опросах
Вы не можете прикреплять файлы к сообщениям
Вы можете скачивать файлы