Loading...
Error

Скачать Парни со стволами / War Dogs (Тодд Филлипс) [2016, драма, комедия, военный, UHD BDRemux] [2160p (4K HDR)] [Dub (лицензия)]+[Ukr]+[AVO (Д. Есарев, Ю. Немахов)]+[Eng]+[Sub Rus, Eng] торрент без регистрации

Статистика раздачи
Размер:  55,5 GB   |    Скачан:  41 раз
Сидов:  1  [  0 KB/s  ]  
 
 
 
Автор Сообщение

МихаНЕзатор

[] 

Информация о фильме
Название: Парни со стволами
Оригинальное название: War Dogs
Год выхода: 2016
Жанр: Драма, комедия, военный
Режиссер: Тодд Филлипс

В ролях: Майлз Теллер, Джона Хилл, Стив Лэнц, Грегг Уэйнер, Эдди Джемисон, Джулиан Сержи, Дэниэл Берсон, Эдсон Жан, Брэдли Купер

О фильме: Реальная история о приятелях-планокурах из Майами, умудрившихся выбить в Пентагоне контракт на 300 миллионов долларов на поставку оружия.



Релиз от: TERMiNAL, BLUEBIRD
Продолжительность: 01:54:12
Качество: UHD BDRemux (HDR)
Перевод: Дублированный (Лицензия BD CEE), Авторский (одноголосый, закадровый) (Д. Есарев, Ю. Немахов)
Субтитры: Русские (Full-length, Forced), Украинские (Forced), Английские

Файл
Видео: HEVC/H.265, 3840x2160p, (16:9), 58.0 Mb/s, 23.976 fps
Аудио: AC3, 6 ch, 640 kbps - Русский, Дубляж
Аудио: AC3, 2 ch, 192 kbps - Украинский
Аудио: DTS-HD MA, 6 ch, 3556 kbps - Русский, Д. Есарев
Аудио: DTS-HD MA, 6 ch, 3610 kbps - Русский, Ю. Немахов
Аудио: DTS-HD MA, 6 ch, 3525 kbps - Английский

АНОНСЫ ПОПУЛЯРНЫХ РАЗДАЧ


Торрент обновлён, добавлен украинский и авторский перевод Ю. Немахова!
Video
ID : 1
Format : HEVC
Format/Info : High Efficiency Video Coding
Format profile : Main 10@L5.1@High
Codec ID : V_MPEGH/ISO/HEVC
Duration : 1 h 54 min
Bit rate : 58.0 Mb/s
Width : 3 840 pixels
Height : 2 160 pixels
Display aspect ratio : 16:9
Frame rate mode : Constant
Frame rate : 23.976 (24000/1001) FPS
Color space : YUV
Chroma subsampling : 4:2:0 (Type 2)
Bit depth : 10 bits
Bits/(Pixel*Frame) : 0.292
Stream size : 46.3 GiB (83%)
Title : WAR_DOGS_BD_UHD_HDR_REMUX-BLUEBIRD
Writing library : ATEME Titan File 3.7.6 (4.7.6.101)
Default : Yes
Forced : No
Color range : Limited
Color primaries : BT.2020
Transfer characteristics : PQ
Matrix coefficients : BT.2020 non-constant
Mastering display color pri : R: x=0.680000 y=0.320000, G: x=0.265000 y=0.690000, B: x=0.150000 y=0.060000, White point: x=0.312700 y=0.329000
Mastering display luminance : min: 0.0050 cd/m2, max: 4000.0000 cd/m2
Maximum Content Light Level : 1225 cd/m2
Maximum Frame-Average Light : 361 cd/m2

Audio #1
ID : 2
Format : AC-3
Format/Info : Audio Coding 3
Format settings, Endianness : Big
Codec ID : A_AC3
Duration : 1 h 54 min
Bit rate mode : Constant
Bit rate : 640 kb/s
Channel(s) : 6 channels
Channel positions : Front: L C R, Side: L R, LFE
Sampling rate : 48.0 kHz
Frame rate : 31.250 FPS (1536 SPF)
Bit depth : 16 bits
Compression mode : Lossy
Stream size : 523 MiB (1%)
Title : [DUB] DD 5.1 @ 640 kbps
Language : Russian
Service kind : Complete Main
Default : Yes
Forced : No

Audio #2
ID : 3
Format : AC-3
Format/Info : Audio Coding 3
Format settings, Endianness : Big
Codec ID : A_AC3
Duration : 1 h 54 min
Bit rate mode : Constant
Bit rate : 192 kb/s
Channel(s) : 2 channels
Channel positions : Front: L R
Sampling rate : 48.0 kHz
Frame rate : 31.250 FPS (1536 SPF)
Bit depth : 16 bits
Compression mode : Lossy
Stream size : 157 MiB (0%)
Title : [DUB] DD 2.0 @ 192 kbps
Language : Ukrainian
Service kind : Complete Main
Default : No
Forced : No

Audio #3
ID : 4
Format : DTS
Format/Info : Digital Theater Systems
Format profile : MA / Core
Mode : 16
Format settings, Endianness : Big
Codec ID : A_DTS
Duration : 1 h 54 min
Bit rate mode : Variable / Constant
Bit rate : 3 556 kb/s / 1 509 kb/s
Channel(s) : 6 channels
Channel positions : Front: L C R, Side: L R, LFE
Sampling rate : 48.0 kHz
Frame rate : 93.750 FPS (512 SPF)
Bit depth : 24 bits
Compression mode : Lossless / Lossy
Stream size : 2.84 GiB (5%)
Title : [VO] DTS-HD MA 5.1 @ 3557 kbps (D. Esarev)
Language : Russian
Default : No
Forced : No

Audio #4
ID : 5
Format : DTS
Format/Info : Digital Theater Systems
Format profile : MA / Core
Mode : 16
Format settings, Endianness : Big
Codec ID : A_DTS
Duration : 1 h 54 min
Bit rate mode : Variable / Constant
Bit rate : 3 610 kb/s / 1 509 kb/s
Channel(s) : 6 channels
Channel positions : Front: L C R, Side: L R, LFE
Sampling rate : 48.0 kHz
Frame rate : 93.750 FPS (512 SPF)
Bit depth : 24 bits
Compression mode : Lossless / Lossy
Stream size : 2.88 GiB (5%)
Title : [VO] DTS-HD MA 5.1 @ 3557 kbps (Y. Nemahov)
Language : Russian
Default : No
Forced : No

Audio #5
ID : 6
Format : DTS
Format/Info : Digital Theater Systems
Format profile : MA / Core
Mode : 16
Format settings, Endianness : Big
Codec ID : A_DTS
Duration : 1 h 54 min
Bit rate mode : Variable / Constant
Bit rate : 3 525 kb/s / 1 509 kb/s
Channel(s) : 6 channels
Channel positions : Front: L C R, Side: L R, LFE
Sampling rate : 48.0 kHz
Frame rate : 93.750 FPS (512 SPF)
Bit depth : 24 bits
Compression mode : Lossless / Lossy
Stream size : 2.81 GiB (5%)
Title : [ORIGINAL] DTS-HD MA 5.1 @ 3525 kbps
Language : English
Default : No
Forced : No

Text #1
ID : 7
Format : UTF-8
Codec ID : S_TEXT/UTF8
Codec ID/Info : UTF-8 Plain Text
Duration : 1 h 53 min
Bit rate : 110 b/s
Count of elements : 1297
Stream size : 91.5 KiB (0%)
Title : Full-length
Language : Russian
Default : No
Forced : No

Text #2
ID : 8
Format : PGS
Codec ID : S_HDMV/PGS
Codec ID/Info : Picture based subtitle format used on BDs/HD-DVDs
Duration : 1 h 53 min
Bit rate : 44.0 kb/s
Count of elements : 3872
Stream size : 35.7 MiB (0%)
Title : Full-length
Language : English
Default : No
Forced : No

Text #3
ID : 9
Format : UTF-8
Codec ID : S_TEXT/UTF8
Codec ID/Info : UTF-8 Plain Text
Duration : 1 h 48 min
Bit rate : 2 b/s
Count of elements : 42
Stream size : 1.77 KiB (0%)
Title : Forced
Language : Russian
Default : Yes
Forced : Yes

Text #4
ID : 10
Format : UTF-8
Codec ID : S_TEXT/UTF8
Codec ID/Info : UTF-8 Plain Text
Duration : 1 h 47 min
Bit rate : 1 b/s
Count of elements : 26
Stream size : 1.09 KiB (0%)
Title : Forced
Language : Ukrainian
Default : No
Forced : No

Menu
00:00:00.000 : en:Chapter 1
00:10:13.779 : en:Chapter 2
00:19:00.931 : en:Chapter 3
00:30:21.110 : en:Chapter 4
00:40:02.525 : en:Chapter 5
00:50:56.178 : en:Chapter 6
00:59:34.362 : en:Chapter 7
01:10:59.380 : en:Chapter 8
01:20:08.929 : en:Chapter 9
01:32:06.020 : en:Chapter 10
01:39:36.220 : en:Chapter 11
01:48:19.117 : en:Chapter 12
Внимание! В авторской озвучке присутствует ненормативная лексика.



Скачать Парни.со.стволами.War.Dogs.(Тодд.Филлипс).[2016.драма.комедия.военный.UHD.BDRemux].[2160p.(4K.HDR)].[Dub.(лицензия)]+[Ukr]+[AVO.(Д.Есарев.Ю.Немахов)]+[Eng]+[Sub.Rus.Eng].torrent без регистрации
Золото ЗОЛОТАЯ РАЗДАЧА! СКАЧАННОЕ НЕ ЗАСЧИТЫВАЕТСЯ! Золото
Дата: Зарегистрирован   [ Тип: внутренний ] Как тут cкачать?
MAGNET ссылка
MAGNET ссылка


Скачать .torrent

278 KB

Статус: проверено DHT
Скачан: торрент - 41 раз, раздача полностью - 4 раз
Размер: 55,5 GB
Оценка:  - (Голосов: 0)
Поблагодарили: 1
Поделиться ссылкой на эту раздачу с друзьями:
В контактеFacebookОдноклассникиTwitterLivejournalМой МирLiveinternet
 

 
Показать сообщения:    


Вы не можете начинать темы
Вы не можете отвечать на сообщения
Вы не можете редактировать свои сообщения
Вы не можете удалять свои сообщения
Вы не можете голосовать в опросах
Вы не можете прикреплять файлы к сообщениям
Вы можете скачивать файлы