Loading...
Error

Скачать Орвилл / The Orville (Сезон 01, серии 01-10 из 13) (Брэннон Брага, Джон Кассар, Джеймс Л. Конуэй) [2017, Фантастика, драма, комедия, WEBRip] [720p] [DVO] (Кубик в Кубе) торрент без регистрации

Статистика раздачи
Размер:  17,77 GB   |    Скачан:  9 раз
Сидов:  1  [  0 KB/s  ]  
 
 
 
Автор Сообщение

leon030982

[] 

Орвилл | The Orville



Год выпуска: 2017
Страна: США, 20th Century Fox Television, Fuzzy Door Productions, Twentieth Century Fox Television
Жанр: Фантастика, драма, комедия
Продолжительность: ~ 00:45:00
Перевод: Профессиональный (двухголосый, закадровый) *Кубик в Кубе*
Субтитры: Английские

Режиссёр: Брэннон Брага, Джон Кассар, Джеймс Л. Конуэй

В ролях: Сет МакФарлейн, Скотт Граймз, Пенни Джонсон, Питер Макон, Эдрианн Палики, Холстон Сейдж, Ларри Джо Кэмпбелл, Норм МакДональд

Описание: 25 столетие – это время когда, человечеству перестало хватать планеты Земля, как источника еды и ресурсов, необходимых для жизни. К тому же все уголки родной планеты уже давно изучены и хочется чего-то большего – новых открытий, иных рас, необычных изобретений, которые можно будет у них выменять на свои какие-то технические достижения. Поставив за цель, ведущие умы человечества достигают ее. Им удается выйти на связь с другими разумными существами, что обитают во вселенной. Следующий шаг – это построить огромный космический корабль, который поможет покорить космические просторы и изучить все воочию. Проект получает название Орвилл и отдается под руководство молодого капитана Мерсера, у которого сейчас в жизни не самый простой период. Он разлучается с супругой, но не смотря на это не упивается горем, а старается наоборот переключиться на что-то иное и космическое путешествие подходит для этого как нельзя лучше.



Релиз --
Работа со звуком: messafan

Качество: WEBRip 720p
Формат: MKV
Видео: 1280x720 at 23.976 fps, MPEG-4 AVC, ~5000 kbps avg
Аудио 1: 48 kHz, AC3, 3/2 (L,C,R,l,r) + LFE ch, ~640.00 kbps avg |KvK|
Аудио 2: 48 kHz, AC3, 3/2 (L,C,R,l,r) + LFE ch, ~640.00 kbps avg [ENG]
General
Unique ID : 182601136764891782691965327289717933180 (0x895FB320AF0E5DF4AFD5AA88CE4CC47C)
Complete name : E:\The.Orville.S01.720p.WEB.CasStudio.TV\The.Orville.S01E02.Command.Performance.720p.WEBRip.KvK.CasStudio.TV.mkv
Format : Matroska
Format version : Version 4 / Version 2
File size : 1.65 GiB
Duration : 43 min 56 s
Overall bit rate : 5 370 kb/s
Movie name : The Orville 01x02 (Command Performance) - release by messafan for CasStudio.TV
Encoded date : UTC 2017-09-21 17:52:17
Writing application : mkvmerge v6.7.0 ('Back to the Ground') 64bit built on Jan 8 2014 15:10:52
Writing library : libebml v1.3.0 + libmatroska v1.4.1

Video
ID : 1
Format : AVC
Format/Info : Advanced Video Codec
Format profile : High@L4.1
Format settings : CABAC / 9 Ref Frames
Format settings, CABAC : Yes
Format settings, RefFrames : 9 frames
Codec ID : V_MPEG4/ISO/AVC
Duration : 43 min 56 s
Bit rate : 3 984 kb/s
Width : 1 280 pixels
Height : 720 pixels
Display aspect ratio : 16:9
Frame rate mode : Constant
Frame rate : 23.976 (24000/1001) FPS
Color space : YUV
Chroma subsampling : 4:2:0
Bit depth : 8 bits
Scan type : Progressive
Bits/(Pixel*Frame) : 0.180
Stream size : 1.22 GiB (74%)
Language : English
Default : Yes
Forced : No

Audio #1
ID : 2
Format : AC-3
Format/Info : Audio Coding 3
Format settings, Endianness : Big
Codec ID : A_AC3
Duration : 43 min 56 s
Bit rate mode : Constant
Bit rate : 640 kb/s
Channel(s) : 6 channels
Channel positions : Front: L C R, Side: L R, LFE
Sampling rate : 48.0 kHz
Frame rate : 31.250 FPS (1536 SPF)
Bit depth : 16 bits
Compression mode : Lossy
Stream size : 201 MiB (12%)
Title : KvK DD5.1 @ 640kbps
Language : Russian
Service kind : Complete Main
Default : Yes
Forced : No

Audio #2
ID : 3
Format : E-AC-3
Format/Info : Enhanced Audio Coding 3
Format settings, Endianness : Big
Codec ID : A_EAC3
Duration : 43 min 56 s
Bit rate mode : Constant
Bit rate : 640 kb/s
Channel(s) : 6 channels
Channel positions : Front: L C R, Side: L R, LFE
Sampling rate : 48.0 kHz
Frame rate : 187.500 FPS (256 SPF)
Compression mode : Lossy
Delay relative to video : 167 ms
Stream size : 201 MiB (12%)
Title : English EC3 5.1 @ 640kbps
Language : English
Service kind : Complete Main
Default : No
Forced : No

Text
ID : 4
Format : UTF-8
Codec ID : S_TEXT/UTF8
Codec ID/Info : UTF-8 Plain Text
Title : Eng sub
Language : English
Default : No
Forced : No
Когда раздача ведётся путём добавления новых серий, при каждом добавлении создётся новый торрент. Чтобы начать докачку новой серии, пользователям необходимо сделать следующее:
(1) остановить скачивание,
(2) удалить старый торрент у себя из клиента (старые серии удалять не надо),
(3) скачать новый торрент и запустить его у себя в клиенте вместо старого, при этом указать клиенту путь в старую папку, куда и должно происходить скачивание новых серий.
Ваш клиент при этом должен произвести хеширование (проверку) старой папки (если не производит сам - помогите ему сделать это), и будет докачивать только те серии, которых у вас ещё нет. Старые серии при этом не удаляются, а продолжают раздаваться!
Eсли вы уже удалили старые серии, то предотвратить повторную закачку старых серий можно, отжав галочку в соответсвующих местах при запуске нового торрента. По возможности, желательно не удалять старые серии как можно дольше, чтобы релизёр не столько продолжал раздавать старые серии, а смог сконцентрироваться на новых.



Скачать Орвилл.The.Orville.(Сезон.01.серии.01-10.из.13).(Брэннон.Брага.Джон.Кассар.Джеймс.Л.Конуэй).[2017.Фантастика.драма.комедия.WEBRip].[720p].[DVO].(Кубик.в.Кубе).torrent без регистрации
Золото ЗОЛОТАЯ РАЗДАЧА! СКАЧАННОЕ НЕ ЗАСЧИТЫВАЕТСЯ! Золото
Дата: Зарегистрирован   [ Тип: внутренний ] Как тут cкачать?
MAGNET ссылка
MAGNET ссылка


Скачать .torrent

90 KB

Статус: проверено DHT
Скачан: торрент - 9 раз, раздача полностью - 0 раз
Размер: 17,77 GB
Оценка:  - (Голосов: 0)
Поблагодарили: 1
Поделиться ссылкой на эту раздачу с друзьями:
В контактеFacebookОдноклассникиTwitterLivejournalМой МирLiveinternet
 

 
Показать сообщения:    


Вы не можете начинать темы
Вы не можете отвечать на сообщения
Вы не можете редактировать свои сообщения
Вы не можете удалять свои сообщения
Вы не можете голосовать в опросах
Вы не можете прикреплять файлы к сообщениям
Вы можете скачивать файлы