Loading...
Error

Скачать Мишель Вальян: Жажда скорости / Michel Vaillant (Луи-Паскаль Кувлер) [2003, спорт, триллер, BDRip-AVC] [Dub]+[DVO]+[MVO]+[AVO]+[Оригинал]+[Sub Rus, Eng]x2 торрент без регистрации

Статистика раздачи
Размер:  4,61 GB   |    Скачан:  12 раз
Сидов:  1  [  0 KB/s  ]  
 
 
 
Автор Сообщение

Marsianka

[] 

Информация о фильме
Название: Мишель Вальян: Жажда скорости
Оригинальное название: Michel Vaillant
Год выхода: 2003
Жанр: спорт, триллер
Режиссер: Луи-Паскаль Кувлер / Louis-Pascal Couvelaire
В ролях: Сагамор Стевенен, Питер Янгблад Хиллз, Дайан Крюгер, Жан-Пьер Кассель, Беатрис Аженен, Филипп Бас, Филипп Леллушб, Лиза Барбуша, Джинн Моран, Франсуа Леванталь

О фильме: Главный герой фильма — бесстрашный и виртуозный автогонщик Мишель Вальян — многократный победитель крупнейших авторалли мира. Победам и успехам его команды восторженно рукоплещет публика, ему завидуют побежденные соперники. На сложнейшей трассе этой супер-гонки их ждет бескомпромиссная и жестокая борьба не за первое место, а борьба за жизнь, когда коварство соперников не знает границ.



Страна: Франция
Студия: Europa Corp., TF1 Films Productions, The Prod
Продолжительность: 01:43:28
1: Русский: Дубляж
2: Украинский: Профессиональный двухголосый закадровый - Новий канал
3: Украинский: Профессиональный многоголосый закадровый - К1
4: Русский: одноголосый закадровый (авторский) (А.Дасевич)
Файл
Кодек: x264
Качество: BDRip-AVC (исх. BDRip 1080p)
Видео: 1104x468 (2.35:1), 23.976 fps, AVC, ~4450 Kbps, 0.359 bits/pixel

#1: Russian, 48.0 KHz, AC3, 6 ch, 384 Kbps - 48 kHz, AC3 Audio, 5.1, 384 kbps, Dub
#2: Russian, 48.0 KHz, AC3, 6 ch, 448 Kbps - 48 kHz, AC3 Audio, 5.1, 448 kbps, VO (А.Дасевич)
#3: Ukrainian, 48.0 KHz, AC3, 6 ch, 448 Kbps - Двухголосый закадровый - Новий канал
#4: Ukrainian, 48.0 KHz, AC3, 2 ch, 192 Kbps - Могоголосый закадровый - К1
#5: French, 48.0 KHz, AC3, 6 ch, 448 Kbps - 48 kHz, AC3 Audio, 5.1, 448 kbps, Original
Субтитры: русские, английские

Общее
Уникальный идентификатор : 234254183685799670921568955308533956774 (0xB03BB6F64E993BE9B711F5AA96C140A6)
Полное имя : D:Michel.Vaillant.2003.BDRip-AVC.2xRus.2xUkr.Fre.mkv
Формат : Matroska
Версия формата : Version 4 / Version 2
Размер файла : 4,61 Гбайт
Продолжительность : 1 ч. 43 м.
Общий поток : 6372 Кбит/сек
Дата кодирования : UTC 2017-11-01 15:40:55
Программа кодирования : mkvmerge v7.9.0 ('Birds') 64bit
Библиотека кодирования : libebml v1.3.1 + libmatroska v1.4.2

Видео
Идентификатор : 1
Формат : AVC
Формат/Информация : Advanced Video Codec
Профиль формата : High@L4.1
Параметр CABAC формата : Да
Параметр RefFrames формата : 11 кадров
Идентификатор кодека : V_MPEG4/ISO/AVC
Продолжительность : 1 ч. 43 м.
Битрейт : 4450 Кбит/сек
Ширина : 1104 пикселя
Высота : 468 пикселей
Соотношение сторон : 2,35:1
Режим частоты кадров : Постоянный
Частота кадров : 23,976 (24000/1001) кадра/сек
Цветовое пространство : YUV
Субдискретизация насыщенности : 4:2:0
Битовая глубина : 8 бит
Тип развёртки : Прогрессивная
Бит/(Пиксели*Кадры) : 0.359
Размер потока : 3,22 Гбайт (70%)
Заголовок : Michel Vaillant 2003 x264 BDRip-AVC AC3 Sub tRuAVC
Библиотека кодирования : x264 core 135 r2345 f0c1c53
Настройки программы : cabac=1 / ref=11 / deblock=1:-3:-2 / analyse=0x3:0x133 / me=tesa / subme=11 / psy=1 / psy_rd=1.10:0.04 / mixed_ref=1 / me_range=32 / chroma_me=1 / trellis=2 / 8x8dct=1 / cqm=0 / deadzone=21,11 / fast_pskip=0 / chroma_qp_offset=-3 / threads=12 / lookahead_threads=3 / sliced_threads=0 / nr=0 / decimate=1 / interlaced=0 / bluray_compat=0 / constrained_intra=0 / bframes=13 / b_pyramid=2 / b_adapt=2 / b_bias=0 / direct=3 / weightb=1 / open_gop=0 / weightp=2 / keyint=250 / keyint_min=23 / scenecut=40 / intra_refresh=0 / rc_lookahead=0 / rc=2pass / mbtree=0 / bitrate=4450 / ratetol=1.0 / qcomp=0.80 / qpmin=0 / qpmax=69 / qpstep=4 / cplxblur=20.0 / qblur=0.5 / vbv_maxrate=50000 / vbv_bufsize=62500 / nal_hrd=none / ip_ratio=1.17 / pb_ratio=1.23 / aq=2:0.90
Язык : English
Default : Да
Forced : Нет
Цветовой диапазон : Limited
Коэффициенты матрицы : BT.709

Аудио #1
Идентификатор : 2
Формат : AC-3
Формат/Информация : Audio Coding 3
Параметр Endianness формата : Big
Идентификатор кодека : A_AC3
Продолжительность : 1 ч. 43 м.
Вид битрейта : Постоянный
Битрейт : 384 Кбит/сек
Каналы : 6 каналов
Расположение каналов : Front: L C R, Side: L R, LFE
Частота : 48,0 КГц
Частота кадров : 31,250 кадров/сек (1536 SPF)
Битовая глубина : 16 бит
Метод сжатия : С потерями
Размер потока : 284 Мбайт (6%)
Заголовок : 48 kHz, AC3 Audio, 5.1, 384 kbps, Dub
Язык : Russian
ServiceKind/String : Complete Main
Default : Нет
Forced : Нет

Аудио #2
Идентификатор : 3
Формат : AC-3
Формат/Информация : Audio Coding 3
Параметр Endianness формата : Big
Идентификатор кодека : A_AC3
Продолжительность : 1 ч. 43 м.
Вид битрейта : Постоянный
Битрейт : 448 Кбит/сек
Каналы : 6 каналов
Расположение каналов : Front: L C R, Side: L R, LFE
Частота : 48,0 КГц
Частота кадров : 31,250 кадров/сек (1536 SPF)
Битовая глубина : 16 бит
Метод сжатия : С потерями
Размер потока : 332 Мбайт (7%)
Заголовок : 48 kHz, AC3 Audio, 5.1, 448 kbps, VO (А.Дасевич)
Язык : Russian
ServiceKind/String : Complete Main
Default : Нет
Forced : Нет

Аудио #3
Идентификатор : 4
Формат : AC-3
Формат/Информация : Audio Coding 3
Параметр Endianness формата : Big
Идентификатор кодека : A_AC3
Продолжительность : 1 ч. 43 м.
Вид битрейта : Постоянный
Битрейт : 448 Кбит/сек
Каналы : 6 каналов
Расположение каналов : Front: L C R, Side: L R, LFE
Частота : 48,0 КГц
Частота кадров : 31,250 кадров/сек (1536 SPF)
Битовая глубина : 16 бит
Метод сжатия : С потерями
Размер потока : 331 Мбайт (7%)
Заголовок : Двухголосый закадровый - Новий канал
Язык : Ukrainian
ServiceKind/String : Complete Main
Default : Да
Forced : Да

Аудио #4
Идентификатор : 5
Формат : AC-3
Формат/Информация : Audio Coding 3
Параметр Endianness формата : Big
Идентификатор кодека : A_AC3
Продолжительность : 1 ч. 43 м.
Вид битрейта : Постоянный
Битрейт : 192 Кбит/сек
Каналы : 2 канала
Расположение каналов : Front: L R
Частота : 48,0 КГц
Частота кадров : 31,250 кадров/сек (1536 SPF)
Битовая глубина : 16 бит
Метод сжатия : С потерями
Размер потока : 142 Мбайт (3%)
Заголовок : Могоголосый закадровый - К1
Язык : Ukrainian
ServiceKind/String : Complete Main
Default : Нет
Forced : Нет

Аудио #5
Идентификатор : 6
Формат : AC-3
Формат/Информация : Audio Coding 3
Параметр Endianness формата : Big
Идентификатор кодека : A_AC3
Продолжительность : 1 ч. 43 м.
Вид битрейта : Постоянный
Битрейт : 448 Кбит/сек
Каналы : 6 каналов
Расположение каналов : Front: L C R, Side: L R, LFE
Частота : 48,0 КГц
Частота кадров : 31,250 кадров/сек (1536 SPF)
Битовая глубина : 16 бит
Метод сжатия : С потерями
Размер потока : 332 Мбайт (7%)
Заголовок : 48 kHz, AC3 Audio, 5.1, 448 kbps, Original
Язык : French
ServiceKind/String : Complete Main
Default : Нет
Forced : Нет

Текст #1
Идентификатор : 7
Формат : UTF-8
Идентификатор кодека : S_TEXT/UTF8
Идентификатор кодека/Информация : UTF-8 Plain Text
Продолжительность : 1 ч. 35 м.
Битрейт : 74 бит/сек
ElementCount : 1104
Размер потока : 52,3 Кбайт (0%)
Заголовок : SRT, Full
Язык : Russian
Default : Нет
Forced : Нет

Текст #2
Идентификатор : 8
Формат : UTF-8
Идентификатор кодека : S_TEXT/UTF8
Идентификатор кодека/Информация : UTF-8 Plain Text
Продолжительность : 1 ч. 35 м.
Битрейт : 32 бит/сек
ElementCount : 932
Размер потока : 22,9 Кбайт (0%)
Заголовок : SRT, Full
Язык : English
Default : Нет
Forced : Нет

Меню
00:00:00.000 : en:00:00:00.000
00:04:25.890 : en:00:04:25.890
00:16:20.771 : en:00:16:20.771
00:24:57.370 : en:00:24:57.370
00:33:15.326 : en:00:33:15.326
00:43:12.047 : en:00:43:12.047
00:48:50.677 : en:00:48:50.677
00:56:27.383 : en:00:56:27.383
01:05:13.659 : en:01:05:13.659
01:16:21.701 : en:01:16:21.701
01:24:55.548 : en:01:24:55.548
01:30:07.360 : en:01:30:07.360



Скачать Мишель.Вальян.Жажда.скорости.Michel.Vaillant.(Луи-Паскаль.Кувлер).[2003.спорт.триллер.BDRip-AVC].[Dub]+[DVO]+[MVO]+[AVO]+[Оригинал]+[Sub.Rus.Eng]x2.torrent без регистрации
Золото ЗОЛОТАЯ РАЗДАЧА! СКАЧАННОЕ НЕ ЗАСЧИТЫВАЕТСЯ! Золото
Дата: Зарегистрирован   [ Тип: внутренний ] Как тут cкачать?
MAGNET ссылка
MAGNET ссылка


Скачать .torrent

24 KB

Статус: проверено DHT
Скачан: торрент - 12 раз, раздача полностью - 0 раз
Размер: 4,61 GB
Оценка:  - (Голосов: 0)
Поблагодарили: 0
Поделиться ссылкой на эту раздачу с друзьями:
В контактеFacebookОдноклассникиTwitterLivejournalМой МирLiveinternet
 

 
Показать сообщения:    


Вы не можете начинать темы
Вы не можете отвечать на сообщения
Вы не можете редактировать свои сообщения
Вы не можете удалять свои сообщения
Вы не можете голосовать в опросах
Вы не можете прикреплять файлы к сообщениям
Вы можете скачивать файлы