Loading...
Error

Скачать Выбор судьбы / Tenacious D in The Pick of Destiny (Лайам Линч) [2006, мюзикл, комедия, приключения, WEB-DLRip-AVC] [MVO (Пифагор R5)]+[Sub Rus]x2 торрент без регистрации

Статистика раздачи
Размер:  747 MB   |    Скачан:  30 раз

Полного источника не было: 27 минут

 
 
 
Автор Сообщение

Marsianka

[] 

Информация о фильме
Название: Выбор судьбы
Оригинальное название: Tenacious D in The Pick of Destiny
Год выхода: 2006
Жанр: мюзикл, комедия, приключения
Режиссер: Лайам Линч
В ролях: Джек Блэк, Кайл Гэсс, Джейсон Рид, Ронни Джеймс Дио, Пол Ф. Томпкинс, Трой Джентиле, Нед Беллами, Фред Армизен, Кирк Уорд, Эми Пехлер, Тим Роббинс, Бен Стиллер, Эми Адамс, Колин Хэнкс, ...

О фильме :
Случайная встреча лоботряса Кей Джи с простодушным парнем Джей Би изменила их жизнь и стала точкой отсчета дружбы, плодом которой является рок-группа «Tenacious D». Но вскоре друзья осознают, что сделать свою группу всемирно известной дело не из простых. Но, желая побыстрее ускорить течение событий, они решают из музея рок-н-ролла, расположенного неподалеку от их города, выкрасть «Выбор судьбы» – магический гитарный медиатор, который способен самого большого неудачника и бездельника превратить в рок-звезду…



Выпущено: США
Продолжительность: 01:34:06
Перевод: Профессиональный (многоголосый, закадровый) Пифагор R5

Файл
Формат: MKV
Качество: WEB-DLRip-AVC
Видео: MPEG-4 AVC, 752x424, ~ 1031 Кбит/с
Аудио: AAC-LC, 2 ch, ~ 76 Кбит/с
Субтитры: Русские на песни (ненормативная лексика), русские полные.
Общее
Уникальный идентификатор : 253472101613468512810234090609414784038 (0xBEB0F3786EE428ABA64CE74541D44426)
Полное имя : D:MOVIESVybor_sudby.2006.ExKinoRay.mkv
Формат : Matroska
Версия формата : Version 4 / Version 2
Размер файла : 747 Мбайт
Продолжительность : 1 ч. 34 м.
Общий поток : 1109 Кбит/сек
Дата кодирования : UTC 2017-11-01 18:01:31
Программа кодирования : mkvmerge v15.0.0 ('Duel with the Devil') 64-bit
Библиотека кодирования : libebml v1.3.5 + libmatroska v1.4.5

Видео
Идентификатор : 1
Формат : AVC
Формат/Информация : Advanced Video Codec
Профиль формата : High@L4.1
Параметр CABAC формата : Да
Параметр RefFrames формата : 10 кадров
Идентификатор кодека : V_MPEG4/ISO/AVC
Продолжительность : 1 ч. 34 м.
Битрейт : 1031 Кбит/сек
Ширина : 752 пикселя
Высота : 424 пикселя
Соотношение сторон : 16:9
Режим частоты кадров : Постоянный
Частота кадров : 23,976 (24000/1001) кадра/сек
Цветовое пространство : YUV
Субдискретизация насыщенности : 4:2:0
Битовая глубина : 8 бит
Тип развёртки : Прогрессивная
Бит/(Пиксели*Кадры) : 0.135
Размер потока : 694 Мбайт (93%)
Библиотека кодирования : x264 core 152 r2851kMod ba24899
Настройки программы : cabac=1 / ref=10 / deblock=1:-3:-2 / analyse=0x3:0x133 / me=umh / subme=11 / psy=1 / fade_compensate=0.00 / psy_rd=1.00:0.05 / mixed_ref=1 / me_range=32 / chroma_me=1 / trellis=2 / 8x8dct=1 / cqm=0 / deadzone=21,11 / fast_pskip=0 / chroma_qp_offset=-3 / threads=6 / lookahead_threads=1 / sliced_threads=0 / nr=0 / decimate=0 / interlaced=0 / bluray_compat=0 / constrained_intra=0 / bframes=10 / b_pyramid=2 / b_adapt=2 / b_bias=0 / direct=3 / weightb=1 / open_gop=0 / weightp=2 / keyint=240 / keyint_min=23 / scenecut=40 / intra_refresh=0 / rc_lookahead=40 / rc=2pass / mbtree=1 / bitrate=1031 / ratetol=1.0 / qcomp=0.60 / qpmin=0 / qpmax=69 / qpstep=4 / cplxblur=20.0 / qblur=0.5 / vbv_maxrate=50000 / vbv_bufsize=62500 / nal_hrd=none / filler=0 / ip_ratio=1.40 / aq=3:1.00
Default : Да
Forced : Нет

Аудио
Идентификатор : 2
Формат : AAC
Формат/Информация : Advanced Audio Codec
Профиль формата : LC
Идентификатор кодека : A_AAC
Продолжительность : 1 ч. 34 м.
Битрейт : 76,0 Кбит/сек
Каналы : 2 канала
Расположение каналов : Front: L R
Частота : 48,0 КГц
Частота кадров : 46,875 кадров/сек (1024 SPF)
Метод сжатия : С потерями
Задержка видео : 9 мс.
Размер потока : 51,2 Мбайт (7%)
Default : Да
Forced : Нет

Текст #1
Идентификатор : 3
Формат : UTF-8
Идентификатор кодека : S_TEXT/UTF8
Идентификатор кодека/Информация : UTF-8 Plain Text
Продолжительность : 1 ч. 30 м.
Битрейт : 31 бит/сек
ElementCount : 412
Размер потока : 20,9 Кбайт (0%)
Заголовок : Forced songs
Язык : Russian
Default : Нет
Forced : Нет

Текст #2
Идентификатор : 4
Формат : UTF-8
Идентификатор кодека : S_TEXT/UTF8
Идентификатор кодека/Информация : UTF-8 Plain Text
Продолжительность : 1 ч. 33 м.
Битрейт : 91 бит/сек
ElementCount : 1464
Размер потока : 62,9 Кбайт (0%)
Язык : Russian
Default : Нет
Forced : Нет
Релиз от:



Скачать Выбор.судьбы.Tenacious.D.in.The.Pick.of.Destiny.(Лайам.Линч).[2006.мюзикл.комедия.приключения.WEB-DLRip-AVC].[MVO.(Пифагор.R5)]+[Sub.Rus]x2.torrent без регистрации
Золото ЗОЛОТАЯ РАЗДАЧА! СКАЧАННОЕ НЕ ЗАСЧИТЫВАЕТСЯ! Золото
Дата: Зарегистрирован   [ Тип: внутренний ] Как тут cкачать?
MAGNET ссылка
MAGNET ссылка


Скачать .torrent

16 KB

Статус: проверено DHT
Скачан: торрент - 30 раз, раздача полностью - 0 раз
Размер: 747 MB
Оценка:  - (Голосов: 0)
Поблагодарили: 0
Поделиться ссылкой на эту раздачу с друзьями:
В контактеFacebookОдноклассникиTwitterLivejournalМой МирLiveinternet
 

 
Показать сообщения:    


Вы не можете начинать темы
Вы не можете отвечать на сообщения
Вы не можете редактировать свои сообщения
Вы не можете удалять свои сообщения
Вы не можете голосовать в опросах
Вы не можете прикреплять файлы к сообщениям
Вы можете скачивать файлы