Loading...
Error

Скачать День и ночь / Dag och natt (Симон Стахо) [2004, артхаус, драма, DVDRip] [VO]+[Оригинал]+[Sub Rus, Eng] торрент без регистрации

Статистика раздачи
Размер:  1,75 GB   |    Скачан:  19 раз
Сидов:  1  [  0 KB/s  ]  
 
 
 
Автор Сообщение

Marsianka

[] 

Страна: Швеция
Студия: Sonet Film AB, Film i Väst, Hepp Film
Жанр: артхаус, драма
Год выпуска: 2004
Продолжительность: 01:30:42

Режиссер: Симон Стахо / Simon Staho

В ролях: Микаэль Персбрандт, Микаэль Нюквист, Мария Бонневи, Тува Новотны, Пернилла Аугуст, Фарес Фарес, Лена Эндре, Эрланд Йозефсон, Мари Йерансон, Сэм Кессель

Описание: «День и ночь» — это история о людях, которые хотят любить и быть любимыми — об отце Томасе и его сыне Эмиле, его неверной жене Анне и о ее тайном любовнике Якобе, о юной любовнице отца Саре и о его одинокой сестре Еве и матери Модерн, об одержимом футболом тренере Кристиане и о беременной проститутке Десире. Все они ищут ответ на вопрос: «Если любовь — это ответ, то где вопрос?»



Качество видео: DVDRip
Формат видео: AVI
Кодек : XviD
Видео: 720x304 (2.37:1), 25 fps, XviD build 50 ~1854 kbps avg, 0.34 bit/pixel
Субтитры (sonnyb)
Озвучка: Одноголосый любительский закадровый (Andi999)
Субтитры: русские, английские
Оригинальная аудиодорожка: шведский
Аудио: 48 kHz, AC3 Dolby Digital, 3/2 (L,C,R,l,r) + LFE ch, ~448 kbps Rus
Отдельно:
Аудио 2: 48 kHz, AC3 Dolby Digital, 3/2 (L,C,R,l,r) + LFE ch, ~448 kbps Swe
Формат субтитров: softsub (SRT)
Сэмпл

Общее
Полное имя : D:ФільмиФільми AVIDag och natt (Simon Staho, 2004) DVDRipDag och natt (Simon Staho, 2004) DVDRip.avi
Формат : AVI
Формат/Информация : Audio Video Interleave
Размер файла : 1,47 Гбайт
Продолжительность : 1 ч. 30 м.
Общий поток : 2313 Кбит/сек
Название фильма : Dag och natt (Simon Staho, 2004) DVDRip
Режиссёр : Maksmet
Программа кодирования : VirtualDubModRus 1.5.10.2 (build 2542/release)
Формат оригинала/Имя : Movie
Примечание : 03.11.2017

Видео
Идентификатор : 0
Формат : MPEG-4 Visual
Профиль формата : Advanced Simple@L5
Параметр BVOP формата : 1
Параметр QPel формата : Нет
Параметр GMC формата : Без точки перехода
Параметр матрицы формата : Выборочная
Идентификатор кодека : XVID
Идентификатор кодека/Подсказка : XviD
Продолжительность : 1 ч. 30 м.
Битрейт : 1855 Кбит/сек
Ширина : 720 пикселей
Высота : 304 пикселя
Соотношение сторон : 2,35:1
Частота кадров : 25,000 кадров/сек
Цветовое пространство : YUV
Субдискретизация насыщенности : 4:2:0
Битовая глубина : 8 бит
Тип развёртки : Прогрессивная
Метод сжатия : С потерями
Бит/(Пиксели*Кадры) : 0.339
Размер потока : 1,18 Гбайт (80%)
Библиотека кодирования : XviD 1.2.1 (UTC 2008-12-04)

Аудио
Идентификатор : 1
Формат : AC-3
Формат/Информация : Audio Coding 3
Параметр Endianness формата : Big
Идентификатор кодека : 2000
Продолжительность : 1 ч. 30 м.
Вид битрейта : Постоянный
Битрейт : 448 Кбит/сек
Каналы : 6 каналов
Расположение каналов : Front: L C R, Side: L R, LFE
Частота : 48,0 КГц
Частота кадров : 31,250 кадров/сек (1536 SPF)
Битовая глубина : 16 бит
Метод сжатия : С потерями
Размер потока : 291 Мбайт (19%)
Выравнивание : Разделение по промежуткам
Продолжительность промежутка : 40 мс. (1,00 видеокадр)
Время предзагрузки промежутка : 500 мс.
ServiceKind/String : Complete Main



Скачать День.и.ночь.Dag.och.natt.(Симон.Стахо).[2004.артхаус.драма.DVDRip].[VO]+[Оригинал]+[Sub.Rus.Eng].torrent без регистрации
Золото ЗОЛОТАЯ РАЗДАЧА! СКАЧАННОЕ НЕ ЗАСЧИТЫВАЕТСЯ! Золото
Дата: Зарегистрирован   [ Тип: внутренний ] Как тут cкачать?
MAGNET ссылка
MAGNET ссылка


Скачать .torrent

19 KB

Статус: проверено DHT
Скачан: торрент - 19 раз, раздача полностью - 0 раз
Размер: 1,75 GB
Оценка:  - (Голосов: 0)
Поблагодарили: 0
Поделиться ссылкой на эту раздачу с друзьями:
В контактеFacebookОдноклассникиTwitterLivejournalМой МирLiveinternet
 

 
Показать сообщения:    


Вы не можете начинать темы
Вы не можете отвечать на сообщения
Вы не можете редактировать свои сообщения
Вы не можете удалять свои сообщения
Вы не можете голосовать в опросах
Вы не можете прикреплять файлы к сообщениям
Вы можете скачивать файлы