Loading...
Error

Скачать Спецназ / S.W.A.T. (01x01-12 из 15) (Эрнесто Контрера, Хосе Мануэль Кравиото) [2017, боевик, триллер, драма, криминал, приключения, WEBRip] [720p] [MVO (OMSKBIRD)] торрент без регистрации

Статистика раздачи
Размер:  11,63 GB   |    Скачан:  17 раз
Сидов:  1  [  0 KB/s  ]  
 
 
 
Автор Сообщение

МихаНЕзатор

[] 

Информация о фильме
Название: Спецназ
Оригинальное название: S.W.A.T.
Год выхода: 2017
Жанр: Боевик, триллер, драма, криминал, приключения
Режиссер: Билл Джирхарт, Эгил Эгилссон, Джастин Лин

b]В ролях:[/b] Кенни Джонсон, Стефани Сигман, Шемар Мур, Дэвид Лим, Патрик Ст. Эсприт, Аарон Бледсо, Лина Эско, Луис Ферриньо мл., Джей Хэррингтон, Джим Гэррити и др.

b]О фильме:[/b] Описание: Сериал повествует о том, как лейтенанту полицейского спецназа поручают возглавить отряд вышколенных профессионалов с крутым нравом и отсутствием щепетильности при выполнении заданий. Свежесформированная команда — последняя надежда городских властей на восстановление правопорядка в Лос-Анджелесе.



Релиз от: OmskBird

Страна: США, CBS Television Studios, MiddKid Productions, Original Film, Perfect Storm Entertainment
Продолжительность: ~00:45:00 серия
Перевод: Любительский (многоголосый закадровый) | OMSKBIRD records

Файл
Кодек: AVC/H.264
Качество: WEBRip 720p
Видео: H.264, 1280x720 (16:9), 23,976 fps, ~3000 kbps, 0.134 bit/pixel
Звук:
Аудио rus: AC3, 48 kHz, 2 ch, 192 Kbps | OmskBird
Субтитры: отсутствуют
Реклама: присутствует

АНОНСЫ ПОПУЛЯРНЫХ РАЗДАЧ


Торрент обновлён, добавлена 12-я серия!

Релиз-группа: OmskBird
Перевод: Татьяна Масаковская
Роли озвучивали: Алексей Гнеушев, Павел Ярощик, Владислав Данилов, Екатерина Кабашова
Звукорежиссер: Павел Квентов
Постер: Ксения Просветова

General
Complete name : G:FilmsS.W.A.T.S01.720p.WEBRip.OmskBirdS.W.A.T.S01E01.720p.WEBRip.OmskBird.mp4
Format : MPEG-4
Format profile : Base Media
Codec ID : isom (isom)
File size : 1.00 GiB
Duration : 45mn 24s
Overall bit rate : 3 159 Kbps
Encoded date : UTC 2017-11-04 12:01:00
Tagged date : UTC 2017-11-04 12:01:00
Writing application : Yamb 2.1.0.0 [http://yamb.unite-video.com]

Video
ID : 1
Format : AVC
Format/Info : Advanced Video Codec
Format profile : Main@L3.2
Format settings, CABAC : Yes
Format settings, ReFrames : 3 frames
Codec ID : avc1
Codec ID/Info : Advanced Video Coding
Duration : 45mn 23s
Bit rate : 2 965 Kbps
Maximum bit rate : 6 420 Kbps
Width : 1 280 pixels
Height : 720 pixels
Display aspect ratio : 16:9
Frame rate mode : Constant
Frame rate : 23.976 (24000/1001) fps
Standard : PAL
Color space : YUV
Chroma subsampling : 4:2:0
Bit depth : 8 bits
Scan type : Progressive
Bits/(Pixel*Frame) : 0.134
Stream size : 963 MiB (94%)
Language : English
Encoded date : UTC 2017-11-03 16:26:52
Tagged date : UTC 2017-11-04 12:01:19
Color range : Limited
Color primaries : BT.709
Transfer characteristics : BT.709
Matrix coefficients : BT.709

Audio
ID : 2
Format : AC-3
Format/Info : Audio Coding 3
Mode extension : CM (complete main)
Format settings, Endianness : Big
Codec ID : ac-3
Duration : 45mn 24s
Bit rate mode : Constant
Bit rate : 192 Kbps
Channel(s) : 2 channels
Channel positions : Front: L R
Sampling rate : 48.0 KHz
Frame rate : 31.250 fps (1536 spf)
Bit depth : 16 bits
Compression mode : Lossy
Stream size : 62.3 MiB (6%)
Encoded date : UTC 2017-11-04 12:01:17
Tagged date : UTC 2017-11-04 12:01:19

Внимание! Раздача ведётся путём добавления новых серий; при каждом добавлении создётся новый торрент. Чтобы начать докачку новой серии, пользователям необходимо сделать следующее:
Остановить скачивание.
Удалить старый торрент у себя из клиента (старые серии удалять не надо).
Скачать новый торрент и запустить его у себя в клиенте вместо старого, при этом указать клиенту путь в старую папку куда и должно происходить скачивание новых серий.
Ваш клиент при этом должен произвести хеширование (проверку) старой папки (если не производит сам - помогите ему сделать это), и будет докачивать только те серии которых у вас ещё нет. Старые серии при этом не удаляются, а продолжают раздаваться!
Eсли вы уже удалили старые серии, то предотвратить повторную закачку старых серий можно, отжав галочку в соответсвующих местах при запуске нового торрента. По возможности, желательно не удалять старые серии как можно дольше чтобы релизёр не столько продолжал раздавать старые серии, а смог сконцентрироваться на новых.



Скачать Спецназ.S.W.A.T.(01x01-12.из.15).(Эрнесто.Контрера.Хосе.Мануэль.Кравиото).[2017.боевик.триллер.драма.криминал.приключения.WEBRip].[720p].[MVO.(OMSKBIRD)].torrent без регистрации
Золото ЗОЛОТАЯ РАЗДАЧА! СКАЧАННОЕ НЕ ЗАСЧИТЫВАЕТСЯ! Золото
Дата: Зарегистрирован   [ Тип: внутренний ] Как тут cкачать?
MAGNET ссылка
MAGNET ссылка


Скачать .torrent

31 KB

Статус: проверено DHT
Скачан: торрент - 17 раз, раздача полностью - 0 раз
Размер: 11,63 GB
Оценка:  - (Голосов: 0)
Поблагодарили: 0
Поделиться ссылкой на эту раздачу с друзьями:
В контактеFacebookОдноклассникиTwitterLivejournalМой МирLiveinternet
 

 
Показать сообщения:    


Вы не можете начинать темы
Вы не можете отвечать на сообщения
Вы не можете редактировать свои сообщения
Вы не можете удалять свои сообщения
Вы не можете голосовать в опросах
Вы не можете прикреплять файлы к сообщениям
Вы можете скачивать файлы