Loading...
Error

Скачать Мюнхен / Munich (Стивен Спилберг) [2005, триллер, драма, WEB-DL] [1080p] [Open Matte] [Dub]+[DVO]x2+[AVO]+[MVO]+[Eng]x2+[Sub Rus, Eng]x2 торрент без регистрации

Статистика раздачи
Размер:  22,99 GB   |    Скачан:  16 раз
Сидов:  1  [  0 KB/s  ]  
 
 
 
Автор Сообщение

Marsianka

[] 

Информация о фильме
Название: Мюнхен
Оригинальное название: Munich
Год выхода: 2005
Жанр: триллер, драма
Режиссер: Стивен Спилберг
В ролях: Эрик Бана, Дэниэл Крэйг, Киран Хайндс, Матьё Кассовиц, Ханнс Цишлер, Айелет Зурер, Джеффри Раш, Гила Альмагор, Микаэль Лонсдаль, Матьё Амальрик

О фильме:
"Мюнхен" воссоздает драматическую историю секретной израильской группировки, которая назначена выследить и уничтожить 11 палестинцев, подозреваемых в планировании террористического акта 1972 года, а также рассказывает о личной жертве каждого участника миссии возмездия, и человека, возглавившего ее. Трой выступает в роли агента Массада, назначенного лидером команды специалистов, собравшихся вместе для этой операции.



Страна: Франция, Канада, США
Студия: DreamWorks SKG, Peninsula Films, Universal Pictures
Продолжительность: 02:43:43
Профессиональный (дублированный) R5 + Профессиональный (двухголосый, закадровый) Tycoon Studio + Профессиональный (двухголосый, закадровый) П.Гланц и И.Королёва + Авторский (одноголосый, закадровый) Ю.Немахов + Профессиональный (многоголосый, закадровый) ICTV
Файл
Качество: WEB-DL 1080p | Open Matte
Формат: Matroska
Видео: 1920x1080 at 23.976 fps, x264, ~14200 kbps avg
Аудио#1: Russian: 48 kHz, AC3, 3/2 (L,C,R,l,r) + LFE ch, ~448 kbps avg |Дубляж, R5|
Аудио#2: Russian: 48 kHz, AC3, 3/2 (L,C,R,l,r) + LFE ch, ~448 kbps avg |Профессиональный двухголосый, Tycoon Studio|
Аудио#3: Russian: 48 kHz, DTS, 3/2 (L,C,R,l,r) + LFE ch, ~1509 kbps avg |Профессиональный двухголосый, П.Гланц и И.Королёва|
Аудио#4: Russian: 48 kHz, DTS, 3/2 (L,C,R,l,r) + LFE ch, ~768 kbps avg |Авторский, Ю.Немахов|
Аудио#5: Ukrainian: 48 kHz, AC3, 2.0 (L,R) ch, ~192 kbps avg |Профессиональный многоголосый, ICTV|
Аудио#6: English: 48 kHz, DTS, 3/2 (L,C,R,l,r) + LFE ch, ~1509 kbps avg |Blu-ray|
Аудио#7: English: 48 kHz, E-AC3, 3/2 (L,C,R,l,r) + LFE ch, ~640 kbps avg |Amazon|
Субтитры: Russian (Captions, Full), English (Captions, Full, Amazon)
***Исходник видео - WEB-DL Amazon.
***Релиз - spartanec163.
Фильм поставлен по книге Джорджа Йонаса «Vengeance: The True Story of an Israeli Counter-Terrorist Team». По этой же книге в 1986 году был снят телевизионный фильм «Меч Гидеона».
Дочь Стивена Спилберга Саша Спилберг снялась в роли израильской девушки, смотрящей телевизор.
Стивен Спилберг собирался снимать эту картину с прицелом на выпуск в 2003 или 2004 году. Однако после того, как в съёмочном расписании Тома Круза образовалось окно, Стивен предпочёл заморозить данный проект и поработать с Томом над «Войной миров».
Первоначально роль, которая досталась Джеффри Рашу, должен был исполнить Бен Кингсли. Актёру пришлось покинуть проект из-за конфликта с личным расписанием съёмок.
Во время съёмок на Мальте загадочным образом воспламенился грузовик, арендованный съёмочной командой в Германии. В воздухе повисли опасения, что данная акция — дело рук террористов. По официальной версии местной полиции, пожар произошёл в результате перегрева генераторов в связи с невероятно жарким летом на Мальте.
Тони Кушнер сначала отказался работать над сценарием к картине, так как посчитал, что это слишком трудоёмкая работа.
Сначала было написано три варианта сценария, но был принят сценарий Эрика Рота, который позже дорабатывал Тони Кушнер.
Этот фильм обсуждают и им восхищаются главные герои комедии «Немножко беременна».
Гури Вайнберг играет собственного отца, спортсмена, убитого, когда Гури был еще малышом.
В сцене с операцией в Риме, расстрелянное тело Ваэля Звайтера падает лицом к полу, однако позже, когда Карл приходит за гильзами, тело лежит на спине.
Общее
Уникальный идентификатор : 244063879327432821652877907861597866417 (0xB79CFE4C72A61C08BBBE1A818DE049B1)
Полное имя : Munich.2005.Open.Matte.1080p.WEB-DL.4xRus.Ukr.Eng.mkv
Формат : Matroska
Версия формата : Version 4 / Version 2
Размер файла : 23,0 Гбайт
Продолжительность : 2 ч. 43 м.
Режим общего битрейта : Переменный
Общий поток : 20,1 Мбит/сек
Название фильма : Munich.2005.Open.Matte.1080p.WEB-DL.4xRus.Ukr.Eng-spartanec163
Дата кодирования : UTC 2017-11-05 09:19:38
Программа кодирования : mkvmerge v8.3.0 ('Over the Horizon') 64bit
Библиотека кодирования : libebml v1.3.1 + libmatroska v1.4.2

Видео
Идентификатор : 1
Формат : AVC
Формат/Информация : Advanced Video Codec
Профиль формата : High@L4.0
Параметр CABAC формата : Да
Параметр ReFrames формата : 4 кадра
Идентификатор кодека : V_MPEG4/ISO/AVC
Продолжительность : 2 ч. 43 м.
Вид битрейта : Переменный
Битрейт : 14,2 Мбит/сек
Максимальный битрейт : 15,0 Мбит/сек
Ширина : 1920 пикселей
Высота : 1080 пикселей
Соотношение сторон : 16:9
Режим частоты кадров : Постоянный
Частота кадров : 23,976 кадра/сек
Цветовое пространство : YUV
Субдискретизация насыщенности : 4:2:0
Битовая глубина : 8 бит
Тип развёртки : Прогрессивная
Бит/(Пиксели*Кадры) : 0.285
Размер потока : 16,2 Гбайт (71%)
Заголовок : WEB-DL 1080p (Amazon)
Библиотека кодирования : x264 core 148 r2623 d5b2374
Настройки программы : cabac=1 / ref=4 / deblock=1:-1:-1 / analyse=0x3:0x133 / me=umh / subme=9 / psy=1 / psy_rd=1.00:0.15 / mixed_ref=1 / me_range=24 / chroma_me=1 / trellis=2 / 8x8dct=1 / cqm=0 / deadzone=21,11 / fast_pskip=1 / chroma_qp_offset=-3 / threads=34 / lookahead_threads=5 / sliced_threads=0 / nr=150 / decimate=1 / interlaced=0 / bluray_compat=0 / constrained_intra=0 / bframes=8 / b_pyramid=2 / b_adapt=2 / b_bias=0 / direct=3 / weightb=1 / open_gop=0 / weightp=2 / keyint=120 / keyint_min=61 / scenecut=0 / intra_refresh=0 / rc_lookahead=120 / rc=crf / mbtree=1 / crf=18.0 / qcomp=0.60 / qpmin=0 / qpmax=69 / qpstep=4 / vbv_maxrate=15000 / vbv_bufsize=31250 / crf_max=0.0 / nal_hrd=vbr / filler=0 / ip_ratio=1.40 / aq=3:1.00
Язык : English
Default : Да
Forced : Нет
Основные цвета : BT.709
Характеристики трансфера : BT.709
Коэффициенты матрицы : BT.709

Аудио #1
Идентификатор : 2
Формат : AC-3
Формат/Информация : Audio Coding 3
Расширение режима : CM (complete main)
Параметр Endianness формата : Big
Идентификатор кодека : A_AC3
Продолжительность : 2 ч. 43 м.
Вид битрейта : Постоянный
Битрейт : 448 Кбит/сек
Каналы : 6 каналов
Расположение каналов : Front: L C R, Side: L R, LFE
Частота : 48,0 КГц
Битовая глубина : 16 бит
Метод сжатия : С потерями
Размер потока : 525 Мбайт (2%)
Заголовок : AC3 5.1 448Kbps (Дубляж - R5)
Язык : Russian
Default : Да
Forced : Нет

Аудио #2
Идентификатор : 3
Формат : AC-3
Формат/Информация : Audio Coding 3
Расширение режима : CM (complete main)
Параметр Endianness формата : Big
Идентификатор кодека : A_AC3
Продолжительность : 2 ч. 43 м.
Вид битрейта : Постоянный
Битрейт : 448 Кбит/сек
Каналы : 6 каналов
Расположение каналов : Front: L C R, Side: L R, LFE
Частота : 48,0 КГц
Битовая глубина : 16 бит
Метод сжатия : С потерями
Размер потока : 525 Мбайт (2%)
Заголовок : AC3 5.1 448Kbps (Профессиональный, двухголосый - Tycoon Studio)
Язык : Russian
Default : Нет
Forced : Нет

Аудио #3
Идентификатор : 4
Формат : DTS
Формат/Информация : Digital Theater Systems
Режим : 16
Параметр Endianness формата : Big
Идентификатор кодека : A_DTS
Продолжительность : 2 ч. 43 м.
Вид битрейта : Постоянный
Битрейт : 1510 Кбит/сек
Каналы : 6 каналов
Расположение каналов : Front: L C R, Side: L R, LFE
Частота : 48,0 КГц
Битовая глубина : 24 бит
Метод сжатия : С потерями
Размер потока : 1,73 Гбайт (8%)
Заголовок : DTS 5.1 1509Kbps (Профессиональный, двухголосый - П. Гланц и И. Королёва)
Язык : Russian
Default : Нет
Forced : Нет

Аудио #4
Идентификатор : 5
Формат : DTS
Формат/Информация : Digital Theater Systems
Режим : 16
Параметр Endianness формата : Big
Идентификатор кодека : A_DTS
Продолжительность : 2 ч. 43 м.
Вид битрейта : Постоянный
Битрейт : 755 Кбит/сек
Каналы : 6 каналов
Расположение каналов : Front: L C R, Side: L R, LFE
Частота : 48,0 КГц
Битовая глубина : 24 бит
Метод сжатия : С потерями
Размер потока : 884 Мбайт (4%)
Заголовок : DTS 5.1 768Kbps (Авторский, одноголосый - Ю. Немахов)
Язык : Russian
Default : Нет
Forced : Нет

Аудио #5
Идентификатор : 6
Формат : AC-3
Формат/Информация : Audio Coding 3
Профиль формата : Dolby Digital
Расширение режима : CM (complete main)
Параметр Endianness формата : Big
Идентификатор кодека : A_AC3
Продолжительность : 2 ч. 43 м.
Вид битрейта : Постоянный
Битрейт : 192 Кбит/сек
Каналы : 2 канала
Расположение каналов : Front: L R
Частота : 48,0 КГц
Битовая глубина : 16 бит
Метод сжатия : С потерями
Размер потока : 225 Мбайт (1%)
Заголовок : AC3 2.0 192Kbps (Профессиональный, многоголосый - ICTV)
Язык : Ukrainian
Default : Нет
Forced : Нет

Аудио #6
Идентификатор : 7
Формат : DTS
Формат/Информация : Digital Theater Systems
Режим : 16
Параметр Endianness формата : Big
Идентификатор кодека : A_DTS
Продолжительность : 2 ч. 43 м.
Вид битрейта : Постоянный
Битрейт : 1510 Кбит/сек
Каналы : 6 каналов
Расположение каналов : Front: L C R, Side: L R, LFE
Частота : 48,0 КГц
Битовая глубина : 24 бит
Метод сжатия : С потерями
Размер потока : 1,73 Гбайт (8%)
Заголовок : DTS 5.1 1509Kbps (Оригинал - BluRay)
Язык : English
Default : Нет
Forced : Нет

Аудио #7
Идентификатор : 8
Формат : E-AC-3
Формат/Информация : Audio Coding 3
Параметр Endianness формата : Big
Идентификатор кодека : A_EAC3
Продолжительность : 2 ч. 43 м.
Вид битрейта : Постоянный
Битрейт : 640 Кбит/сек
Каналы : 6 каналов
Расположение каналов : Front: L C R, Side: L R, LFE
Частота : 48,0 КГц
Метод сжатия : С потерями
Размер потока : 750 Мбайт (3%)
Заголовок : E-AC3 5.1 640Kbps (Оригинал - Amazon)
Язык : English
Default : Нет
Forced : Нет

Текст #1
Идентификатор : 9
Формат : UTF-8
Идентификатор кодека : S_TEXT/UTF8
Идентификатор кодека/Информация : UTF-8 Plain Text
Заголовок : Captions
Язык : Russian
Default : Да
Forced : Нет

Текст #2
Идентификатор : 10
Формат : UTF-8
Идентификатор кодека : S_TEXT/UTF8
Идентификатор кодека/Информация : UTF-8 Plain Text
Заголовок : Full
Язык : Russian
Default : Нет
Forced : Нет

Текст #3
Идентификатор : 11
Формат : UTF-8
Идентификатор кодека : S_TEXT/UTF8
Идентификатор кодека/Информация : UTF-8 Plain Text
Заголовок : Captions
Язык : English
Default : Нет
Forced : Нет

Текст #4
Идентификатор : 12
Формат : UTF-8
Идентификатор кодека : S_TEXT/UTF8
Идентификатор кодека/Информация : UTF-8 Plain Text
Заголовок : Full, Amazon
Язык : English
Default : Нет
Forced : Нет



Скачать Мюнхен.Munich.(Стивен.Спилберг).[2005.триллер.драма.WEB-DL].[1080p].[Open.Matte].[Dub]+[DVO]x2+[AVO]+[MVO]+[Eng]x2+[Sub.Rus.Eng]x2.torrent без регистрации
Золото ЗОЛОТАЯ РАЗДАЧА! СКАЧАННОЕ НЕ ЗАСЧИТЫВАЕТСЯ! Золото
Дата: Зарегистрирован   [ Тип: внутренний ] Как тут cкачать?
MAGNET ссылка
MAGNET ссылка


Скачать .torrent

116 KB

Статус: проверено DHT
Скачан: торрент - 16 раз, раздача полностью - 1 раз
Размер: 22,99 GB
Оценка:  - (Голосов: 0)
Поблагодарили: 0
Поделиться ссылкой на эту раздачу с друзьями:
В контактеFacebookОдноклассникиTwitterLivejournalМой МирLiveinternet
 

 
Показать сообщения:    


Вы не можете начинать темы
Вы не можете отвечать на сообщения
Вы не можете редактировать свои сообщения
Вы не можете удалять свои сообщения
Вы не можете голосовать в опросах
Вы не можете прикреплять файлы к сообщениям
Вы можете скачивать файлы