Loading...
Error

Скачать Городские легенды 2: Последний отрезок / Urban Legends: Final Cut (Джон Оттмен) [2000, ужасы, триллер, детектив, BDRip] [1080p] [DVO]+[Eng]+[Sub Eng] торрент без регистрации

Статистика раздачи
Размер:  8,87 GB   |    Скачан:  14 раз
Сидов:  1  [  0 KB/s  ]  
 
 
 
Автор Сообщение

Marsianka

[] 

Название: Городские легенды 2: Последний отрезок
Оригинальное название: Urban Legends: Final Cut
Год выхода: 2000

Страна: США, Франция
Студия: Phoenix Pictures, Canal+ Droits Audiovisuels, Original Film
Продолжительность: 01:38:24
Жанр: ужасы, триллер, детектив

Режиссер: Джон Оттмен
В ролях: Дженнифер Моррисон, Мэттью Дэвис, Харт Бокнер, Лоретта Дивайн, Джозеф Лоуренс, Энсон Маунт, Ева Мендес, Энтони Андерсон, Джессика Коффил, Майкл Бэколл, ...

Перевод: Профессиональный (двуголосый, закадровый) с DVD от Columbia/Sony

О фильме: Студентка университета Эми снимает свой дипломный фильм о городских легендах, страшных историях, порожденных первобытным хаосом современных мегаполисов.
Во время съемок происходит таинственная череда загадочных и кровавых событий. Из режиссера Эми должна стать сыщиком — иначе к концу своей картины она сама станет городской легендой…



Кодек: x264
Качество: BDRip 1080p
Видео: 1920x800, 12100 kbps, 23,976 fps
Аудио #1: AC-3, 2 ch, 192 kbps (Rus) - DVO DVD Columbia/Sony
Аудио #2: AC-3, 6 ch, 640 kbps (Eng)
Субтитры: английские
Общее
Уникальный идентификатор : 237133153133046888321583967619186317375 (0xB2662F1D6A48A3899E46BA6F7B52583F)
Полное имя : Городские легенды 2 Последний отрезок (Urban Legends Final Cut) 2000 BDRip 1080p.mkv
Формат : Matroska
Версия формата : Version 2
Размер файла : 8,87 Гбайт
Продолжительность : 1 ч. 38 м.
Общий поток : 12,9 Мбит/сек
Дата кодирования : UTC 2017-11-05 13:40:32
Программа кодирования : mkvmerge v4.0.0 ('The Stars were mine') сборка от Jun 6 2010 16:18:42
Библиотека кодирования : libebml v1.0.0 + libmatroska v1.0.0

Видео
Идентификатор : 1
Формат : AVC
Формат/Информация : Advanced Video Codec
Профиль формата : High@L4.1
Параметр CABAC формата : Да
Параметр ReFrames формата : 5 кадров
Идентификатор кодека : V_MPEG4/ISO/AVC
Продолжительность : 1 ч. 38 м.
Битрейт : 12,1 Мбит/сек
Ширина : 1920 пикселей
Высота : 800 пикселей
Соотношение сторон : 2,40:1
Режим частоты кадров : Постоянный
Частота кадров : 23,976 (24000/1001) кадра/сек
Цветовое пространство : YUV
Субдискретизация насыщенности : 4:2:0
Битовая глубина : 8 бит
Тип развёртки : Прогрессивная
Бит/(Пиксели*Кадры) : 0.328
Размер потока : 8,13 Гбайт (92%)
Библиотека кодирования : x264 core 152 r2851 ba24899
Настройки программы : cabac=1 / ref=5 / deblock=1:-3:-3 / analyse=0x3:0x113 / me=umh / subme=8 / psy=1 / psy_rd=1.10:0.00 / mixed_ref=1 / me_range=32 / chroma_me=1 / trellis=2 / 8x8dct=1 / cqm=0 / deadzone=21,11 / fast_pskip=1 / chroma_qp_offset=-2 / threads=24 / lookahead_threads=4 / sliced_threads=0 / nr=0 / decimate=1 / interlaced=0 / bluray_compat=0 / constrained_intra=0 / bframes=3 / b_pyramid=2 / b_adapt=1 / b_bias=0 / direct=3 / weightb=1 / open_gop=0 / weightp=2 / keyint=240 / keyint_min=24 / scenecut=40 / intra_refresh=0 / rc_lookahead=50 / rc=2pass / mbtree=1 / bitrate=12080 / ratetol=1.0 / qcomp=0.60 / qpmin=0 / qpmax=69 / qpstep=4 / cplxblur=20.0 / qblur=0.5 / ip_ratio=1.40 / aq=3:0.75
Язык : English
Default : Нет
Forced : Нет

Аудио #1
Идентификатор : 2
Формат : AC-3
Формат/Информация : Audio Coding 3
Расширение режима : CM (complete main)
Параметр Endianness формата : Big
Идентификатор кодека : A_AC3
Продолжительность : 1 ч. 38 м.
Вид битрейта : Постоянный
Битрейт : 192 Кбит/сек
Каналы : 2 канала
Расположение каналов : Front: L R
Частота : 48,0 КГц
Частота кадров : 31,250 кадров/сек (1536 spf)
Метод сжатия : С потерями
Размер потока : 135 Мбайт (1%)
Заголовок : DVO DVD Columbia/Sony
Язык : Russian
Default : Нет
Forced : Нет

Аудио #2
Идентификатор : 3
Формат : AC-3
Формат/Информация : Audio Coding 3
Расширение режима : CM (complete main)
Параметр Endianness формата : Big
Идентификатор кодека : A_AC3
Продолжительность : 1 ч. 38 м.
Вид битрейта : Постоянный
Битрейт : 640 Кбит/сек
Каналы : 6 каналов
Расположение каналов : Front: L C R, Side: L R, LFE
Частота : 48,0 КГц
Частота кадров : 31,250 кадров/сек (1536 spf)
Метод сжатия : С потерями
Размер потока : 451 Мбайт (5%)
Язык : English
Default : Нет
Forced : Нет

Текст
Идентификатор : 4
Формат : UTF-8
Идентификатор кодека : S_TEXT/UTF8
Идентификатор кодека/Информация : UTF-8 Plain Text
Язык : English
Default : Нет
Forced : Нет

Меню
00:00:00.000 : en:00:00:00.000
00:01:11.154 : en:00:01:11.154
00:11:55.006 : en:00:11:55.006
00:27:06.500 : en:00:27:06.500
00:43:31.943 : en:00:43:31.943
01:00:41.763 : en:01:00:41.763
01:19:35.270 : en:01:19:35.270
01:33:28.311 : en:01:33:28.311



Скачать Городские.легенды.2.Последний.отрезок.Urban.Legends.Final.Cut.(Джон.Оттмен).[2000.ужасы.триллер.детектив.BDRip].[1080p].[DVO]+[Eng]+[Sub.Eng].torrent без регистрации
Золото ЗОЛОТАЯ РАЗДАЧА! СКАЧАННОЕ НЕ ЗАСЧИТЫВАЕТСЯ! Золото
Дата: Зарегистрирован   [ Тип: внутренний ] Как тут cкачать?
MAGNET ссылка
MAGNET ссылка


Скачать .torrent

45 KB

Статус: проверено DHT
Скачан: торрент - 14 раз, раздача полностью - 7 раз
Размер: 8,87 GB
Оценка:  - (Голосов: 0)
Поблагодарили: 1
Поделиться ссылкой на эту раздачу с друзьями:
В контактеFacebookОдноклассникиTwitterLivejournalМой МирLiveinternet
 

 
Показать сообщения:    


Вы не можете начинать темы
Вы не можете отвечать на сообщения
Вы не можете редактировать свои сообщения
Вы не можете удалять свои сообщения
Вы не можете голосовать в опросах
Вы не можете прикреплять файлы к сообщениям
Вы можете скачивать файлы