Loading...
Error

Скачать Я Хит Леджер / I Am Heath Ledger (Джанибек Исмаилов) [2017, Документальный, BDRemux] [1080p] [DVO] (JimmyJ) торрент без регистрации

Статистика раздачи
Размер:  16,71 GB   |    Скачан:  34 раза
Сидов:  1  [  0 KB/s  ]  
 
 
 
Автор Сообщение

leon030982

[] 

Я Хит Леджер / I Am Heath Ledger

Информация о фильме

Год выхода: 2017
Жанр: Документальный
Страна: Канада
Продолжительность: 01:31:00
Озвучка: Любительский двухголосый закадровый (JimmyJ)
Перевод: PhysKids
Редактор: Элина Уракова
Работа с аудио и видео: Кирилл Жирнов
Локализация текста: Джанибек Исмаилов

Режиссер: Адриан Байтенхайс, Дерик Мюррэй

В ролях: Хит Леджер, Наоми Уоттс, Бен Мендельсон, Джимон Хонсу, Эмиль Хирш

О фильме:

История жизни популярного голливудского актера Хита Леджера, ушедшего из жизни на пике своей карьеры.



Файл

Качество: BDRemux 1080p
Кодек: AVC
Видео: ~ 19.6 Mбит/с, 1920x1080, 23.976 fps
Звук #1: Русский / DTS-HD MA / 24bit / 5.1 / 3322 kbps / 48 kHz
Звук #2: Английский / DTS-HD MA / 24bit / 5.1 / 3360 kbps / 48 kHz
General

Unique ID : 186284924147828713786849435143567547477 (0x8C252BDE46CB409DB5857A3928BB9C55)

Complete name : E:TorrentTransI.Am.Heath.Ledger.2017.1080p.BluRay.REMUX.AVC.DTS-HD.MA.5.1.JimmyJ.mkv

Format : Matroska

Format version : Version 4 / Version 2

File size : 16.7 GiB

Duration : 1 h 31 min

Overall bit rate : 26.2 Mb/s

Movie name : I.Am.Heath.Ledger.2017.1080p.BluRay.REMUX.AVC.DTS-HD.MA.5.1

Encoded date : UTC 2017-07-19 17:04:24

Writing application : mkvmerge v13.0.0 ('The Juggler') 64bit

Writing library : libebml v1.3.4 + libmatroska v1.4.5

Video

ID : 1

Format : AVC

Format/Info : Advanced Video Codec

Format profile : Main@L4.1

Format settings, CABAC : Yes

Format settings, ReFrames : 4 frames

Codec ID : V_MPEG4/ISO/AVC

Duration : 1 h 31 min

Bit rate : 19.6 Mb/s

Width : 1 920 pixels

Height : 1 080 pixels

Display aspect ratio : 16:9

Frame rate mode : Constant

Frame rate : 23.976 (24000/1001) FPS

Standard : NTSC

Color space : YUV

Chroma subsampling : 4:2:0

Bit depth : 8 bits

Scan type : Progressive

Bits/(Pixel*Frame) : 0.394

Stream size : 12.5 GiB (75%)

Title : http://vk.com/hardkor_tom

Default : No

Forced : No

Color range : Limited

Color primaries : BT.709

Transfer characteristics : BT.709

Matrix coefficients : BT.709

Audio #1

ID : 2

Format : DTS

Format/Info : Digital Theater Systems

Format profile : MA / Core

Mode : 16

Format settings, Endianness : Big

Codec ID : A_DTS

Duration : 1 h 31 min

Bit rate mode : Variable / Constant

Bit rate : 3 321 kb/s / 1 509 kb/s

Channel(s) : 6 channels

Channel positions : Front: L C R, Side: L R, LFE

Sampling rate : 48.0 kHz

Frame rate : 93.750 FPS (512 spf)

Bit depth : 24 bits

Compression mode : Lossless / Lossy

Stream size : 2.12 GiB (13%)

Title : DTS-HD MA 5.1 @ 3322 kbps - DVO JimmyJ

Language : Russian

Default : No

Forced : No

Audio #2

ID : 3

Format : DTS

Format/Info : Digital Theater Systems

Format profile : MA / Core

Mode : 16

Format settings, Endianness : Big

Codec ID : A_DTS

Duration : 1 h 31 min

Bit rate mode : Variable / Constant

Bit rate : 3 260 kb/s / 1 509 kb/s

Channel(s) : 6 channels

Channel positions : Front: L C R, Side: L R, LFE

Sampling rate : 48.0 kHz

Frame rate : 93.750 FPS (512 spf)

Bit depth : 24 bits

Compression mode : Lossless / Lossy

Stream size : 2.08 GiB (12%)

Title : DTS-HD MA 5.1 @ 3260 kbps - Original

Language : English

Default : Yes

Forced : No

Menu

00:00:00.000 : en:Chapter 01

00:07:13.266 : en:Chapter 02

00:15:50.449 : en:Chapter 03

00:23:04.633 : en:Chapter 04

00:30:35.291 : en:Chapter 05

00:38:58.836 : en:Chapter 06

00:45:49.204 : en:Chapter 07

00:53:54.606 : en:Chapter 08

01:01:18.966 : en:Chapter 09

01:07:48.314 : en:Chapter 10

01:17:10.375 : en:Chapter 11

01:27:35.416 : en:Chapter 12
Релиз от: JimmyJ



Скачать Я.Хит.Леджер.I.Am.Heath.Ledger.(Джанибек.Исмаилов).[2017.Документальный.BDRemux].[1080p].[DVO].(JimmyJ).torrent без регистрации
Золото ЗОЛОТАЯ РАЗДАЧА! СКАЧАННОЕ НЕ ЗАСЧИТЫВАЕТСЯ! Золото
Дата: Зарегистрирован   [ Тип: внутренний ] Как тут cкачать?
MAGNET ссылка
MAGNET ссылка


Скачать .torrent

43 KB

Статус: проверено DHT
Скачан: торрент - 34 раз, раздача полностью - 17 раз
Размер: 16,71 GB
Оценка:  - (Голосов: 0)
Поблагодарили: 0
Поделиться ссылкой на эту раздачу с друзьями:
В контактеFacebookОдноклассникиTwitterLivejournalМой МирLiveinternet
 

 
Показать сообщения:    


Вы не можете начинать темы
Вы не можете отвечать на сообщения
Вы не можете редактировать свои сообщения
Вы не можете удалять свои сообщения
Вы не можете голосовать в опросах
Вы не можете прикреплять файлы к сообщениям
Вы можете скачивать файлы