Loading...
Error

Скачать Интимный словарь / The Sleeping Dictionary (Гай Дженкин) [2003, драма, мелодрама, WEB-DL] [1080p] [DVO] торрент без регистрации

Статистика раздачи
Размер:  9,14 GB   |    Скачан:  10 раз
Сидов:  1  [  0 KB/s  ]  
 
 
 
Автор Сообщение

Marsianka

[] 

Информация о фильме
Название: Интимный словарь
Оригинальное название: The Sleeping Dictionary
Год выпуска: 2003
Жанр: драма, мелодрама
Выпущено: США, Малайзия, Германия
Продолжительность: 01:49:17
Перевод: Профессиональный двухголосый
Режиссер: Гай Дженкин
В ролях: Джессика Альба, Хью Дэнси, Бренда Блетин, Боб Хоскинс, Кристофер Линг Ли Йен, Юникс Инокян, Майкл Джессинг Лангги, Мано Маниам, К.К. Могги, Эмили Мортимер
О фильме:
Прекрасная островитянка становится добровольной наложницей английского чиновника. Девушек, подобных нашей героине, называют «интимными словарями»: они помогают колонистам осваивать местный язык и обычаи — в постели. Но на этот раз между обворожительным «интимным словарем» и ее хозяином вспыхивает любовь. К несчастью, влюбленных безжалостно разлучают. Спустя год молодой человек возвращается из Англии уже с женой, но прошлое вторгается в его жизнь и все меняет.


Файл
Качество: WEB-DL 1080p
Видео: MPEG-4 AVC, 1920x1080 (16:9), 10900 kbps, 23.976 fps, High Profile 4.0
Аудио 1: Russian: 48 kHz, AC3, 6 ch, 448 kbps |DVO|
Аудио 2: English: 48 kHz, AC3, 6 ch, 384 kbps |Оригинал|
Субтитры: Russian, English
Навигация по главам: есть

Релиз от:
• Исходник видео WEB-DL Amazon
Общее
Уникальный идентификатор : 170329961325752542030493678727984387626 (0x80245B77A4A180659900BC5AAB25162A)
Полное имя : TH_SLPNG_DCTNR_2003_WEB-DL_1080P_BLUEBIRD.mkv
Формат : Matroska
Версия формата : Version 4 / Version 2
Размер файла : 9,14 Гбайт
Продолжительность : 1 ч. 49 м.
Режим общего битрейта : Переменный
Общий поток : 12,0 Мбит/сек
Название фильма : TH_SLPNG_DCTNR_2003_WEB-DL_1080P_BLUEBIRD -AMZN
Дата кодирования : UTC 2016-09-20 18:58:09
Программа кодирования : mkvmerge v8.5.0 ('Vanishing Act') 32bit
Библиотека кодирования : libebml v1.3.1 + libmatroska v1.4.2

Видео
Идентификатор : 1
Формат : AVC
Формат/Информация : Advanced Video Codec
Профиль формата : High@L4
Параметр CABAC формата : Да
Параметр RefFrames формата : 4 кадра
Идентификатор кодека : V_MPEG4/ISO/AVC
Продолжительность : 1 ч. 49 м.
Вид битрейта : Переменный
Битрейт : 11,1 Мбит/сек
Максимальный битрейт : 15,0 Мбит/сек
Ширина : 1920 пикселей
Высота : 1080 пикселей
Соотношение сторон : 16:9
Режим частоты кадров : Постоянный
Частота кадров : 23,976 (24000/1001) кадра/сек
Цветовое пространство : YUV
Субдискретизация насыщенности : 4:2:0
Битовая глубина : 8 бит
Тип развёртки : Прогрессивная
Бит/(Пиксели*Кадры) : 0.224
Размер потока : 8,50 Гбайт (93%)
Библиотека кодирования : x264 core 148 r2623 d5b2374
Настройки программы : cabac=1 / ref=4 / deblock=1:-1:-1 / analyse=0x3:0x133 / me=umh / subme=9 / psy=1 / psy_rd=1.00:0.15 / mixed_ref=1 / me_range=24 / chroma_me=1 / trellis=2 / 8x8dct=1 / cqm=0 / deadzone=21,11 / fast_pskip=1 / chroma_qp_offset=-3 / threads=34 / lookahead_threads=5 / sliced_threads=0 / nr=150 / decimate=1 / interlaced=0 / bluray_compat=0 / constrained_intra=0 / bframes=8 / b_pyramid=2 / b_adapt=2 / b_bias=0 / direct=3 / weightb=1 / open_gop=0 / weightp=2 / keyint=120 / keyint_min=61 / scenecut=0 / intra_refresh=0 / rc_lookahead=120 / rc=crf / mbtree=1 / crf=18.0 / qcomp=0.60 / qpmin=0 / qpmax=69 / qpstep=4 / vbv_maxrate=15000 / vbv_bufsize=31250 / crf_max=0.0 / nal_hrd=vbr / filler=0 / ip_ratio=1.40 / aq=3:1.00
Язык : English
Default : Да
Forced : Нет
Цветовой диапазон : Limited
Основные цвета : BT.709
Характеристики трансфера : BT.709
Коэффициенты матрицы : BT.709

Аудио #1
Идентификатор : 2
Формат : AC-3
Формат/Информация : Audio Coding 3
Параметр Endianness формата : Big
Идентификатор кодека : A_AC3
Продолжительность : 1 ч. 49 м.
Вид битрейта : Постоянный
Битрейт : 448 Кбит/сек
Каналы : 6 каналов
Расположение каналов : Front: L C R, Side: L R, LFE
Частота : 48,0 КГц
Частота кадров : 31,250 кадров/сек (1536 SPF)
Битовая глубина : 16 бит
Метод сжатия : С потерями
Размер потока : 350 Мбайт (4%)
Заголовок : DVO
Язык : Russian
Default : Да
Forced : Нет

Аудио #2
Идентификатор : 3
Формат : AC-3
Формат/Информация : Audio Coding 3
Параметр Endianness формата : Big
Идентификатор кодека : A_AC3
Продолжительность : 1 ч. 49 м.
Вид битрейта : Постоянный
Битрейт : 384 Кбит/сек
Каналы : 6 каналов
Расположение каналов : Front: L C R, Side: L R, LFE
Частота : 48,0 КГц
Частота кадров : 31,250 кадров/сек (1536 SPF)
Битовая глубина : 16 бит
Метод сжатия : С потерями
Размер потока : 300 Мбайт (3%)
Язык : English
Default : Нет
Forced : Нет

Текст #1
Идентификатор : 4
Формат : UTF-8
Идентификатор кодека : S_TEXT/UTF8
Идентификатор кодека/Информация : UTF-8 Plain Text
Продолжительность : 1 ч. 45 м.
Битрейт : 61 бит/сек
ElementCount : 875
Размер потока : 47,5 Кбайт (0%)
Заголовок : full
Язык : Russian
Default : Да
Forced : Нет

Текст #2
Идентификатор : 5
Формат : UTF-8
Идентификатор кодека : S_TEXT/UTF8
Идентификатор кодека/Информация : UTF-8 Plain Text
Продолжительность : 1 ч. 41 м.
Битрейт : 43 бит/сек
ElementCount : 1083
Размер потока : 32,5 Кбайт (0%)
Заголовок : full
Язык : English
Default : Нет
Forced : Нет

Текст #3
Идентификатор : 6
Формат : UTF-8
Идентификатор кодека : S_TEXT/UTF8
Идентификатор кодека/Информация : UTF-8 Plain Text
Продолжительность : 1 ч. 48 м.
Битрейт : 44 бит/сек
ElementCount : 1177
Размер потока : 35,5 Кбайт (0%)
Заголовок : SDH
Язык : English
Default : Нет
Forced : Нет

Меню
00:00:00.170 : en:00:00:00.170
00:00:17.194 : en:00:00:17.194
00:03:14.254 : en:00:03:14.254
00:04:14.319 : en:00:04:14.319
00:05:19.420 : en:00:05:19.420
00:07:00.737 : en:00:07:00.737
00:12:17.961 : en:00:12:17.961
00:16:01.105 : en:00:16:01.105
00:17:32.121 : en:00:17:32.121
00:20:08.134 : en:00:20:08.134
00:22:15.144 : en:00:22:15.144
00:24:00.162 : en:00:24:00.162
00:26:56.182 : en:00:26:56.182
00:30:22.221 : en:00:30:22.221
00:36:47.237 : en:00:36:47.237
00:39:25.245 : en:00:39:25.245
00:40:46.260 : en:00:40:46.260
00:43:24.268 : en:00:43:24.268
00:44:42.279 : en:00:44:42.279
00:46:28.286 : en:00:46:28.286
00:47:44.296 : en:00:47:44.296
00:49:23.309 : en:00:49:23.309
00:51:31.327 : en:00:51:31.327
00:54:29.343 : en:00:54:29.343
00:57:10.370 : en:00:57:10.370
01:01:37.385 : en:01:01:37.385
01:04:09.393 : en:01:04:09.393
01:05:30.409 : en:01:05:30.409
01:08:14.420 : en:01:08:14.420
01:10:01.428 : en:01:10:01.428
01:11:22.437 : en:01:11:22.437
01:12:47.448 : en:01:12:47.448
01:14:41.458 : en:01:14:41.458
01:16:18.464 : en:01:16:18.464
01:17:23.477 : en:01:17:23.477
01:19:32.486 : en:01:19:32.486
01:20:59.496 : en:01:20:59.496
01:22:38.510 : en:01:22:38.510
01:24:55.517 : en:01:24:55.517
01:26:06.525 : en:01:26:06.525
01:27:29.536 : en:01:27:29.536
01:29:21.558 : en:01:29:21.558
01:33:01.577 : en:01:33:01.577
01:36:05.584 : en:01:36:05.584
01:37:24.608 : en:01:37:24.608
01:41:18.626 : en:01:41:18.626
01:44:16.656 : en:01:44:16.656



Скачать Интимный.словарь.The.Sleeping.Dictionary.(Гай.Дженкин).[2003.драма.мелодрама.WEB-DL].[1080p].[DVO].torrent без регистрации
Золото ЗОЛОТАЯ РАЗДАЧА! СКАЧАННОЕ НЕ ЗАСЧИТЫВАЕТСЯ! Золото
Дата: Зарегистрирован   [ Тип: внутренний ] Как тут cкачать?
MAGNET ссылка
MAGNET ссылка


Скачать .torrent

47 KB

Статус: проверено DHT
Скачан: торрент - 10 раз, раздача полностью - 1 раз
Размер: 9,14 GB
Оценка:  - (Голосов: 0)
Поблагодарили: 0
Поделиться ссылкой на эту раздачу с друзьями:
В контактеFacebookОдноклассникиTwitterLivejournalМой МирLiveinternet
 

 
Показать сообщения:    


Вы не можете начинать темы
Вы не можете отвечать на сообщения
Вы не можете редактировать свои сообщения
Вы не можете удалять свои сообщения
Вы не можете голосовать в опросах
Вы не можете прикреплять файлы к сообщениям
Вы можете скачивать файлы