Loading...
Error

Скачать Привычный яд / Our daily poison [2011, документальный, DVB] [DVO] торрент без регистрации

Статистика раздачи
Размер:  3,66 GB   |    Скачан:  27 раз
Сидов:  1  [  0 KB/s  ]  
 
 
 
Автор Сообщение

Marsianka

[] 

Информация о фильме
Название: Привычный яд / Our daily poison
Жанр: документальный

Описание:
Фильм для всех, кто обеспокоен общественным здоровьем. Глубокое исследование повседневных продуктов питания и системы, в которых они регулируются. Мари-Моник удается поговорить с регуляторами и уважаемыми исследователями по всей Северной Америке и Европе.
В фильме показаны многие способы, с помощью которых мы сталкиваемся с колоссально большим набором химических веществ в нашей повседневной жизни - от пестицидов, которыми опрыскивают наши плодовые культуры до добавок и пластмасс, которые загрязняют нашу пищу, и их последствия со временем приводят к сбоям даже в гормональной системе.
Наш ежедневный яд следует следам синтетических молекул в нашей среде и нашей пище, Мари-Моник прослеживает уродливую историю промышленного химического производства, а также дырявой регуляторной системы для химических продуктов, которые все еще действует сегодня - в ущерб потребителям и рабочим , Собирание научных исследований, экспертных показаний, и интервью с фермерами, страдающими острым хроническим отравлением, Робин показывает горький пример того, как корпоративные интересы и наше невежество могут стоить нам жизни.

Продолжительность: 01:53:55
Качество видео: DVB
Перевод: Двуголосый закадровый, профессиональный
Субтитры: отсутствуют

Видео: MPEG-2, 720х576, ~ 7000 Кбит/с
Аудио: MP2, 2 ch, 256 Кбит/с

Общее
Полное имя : D:Privychnyy.yad.2.iz.2.MPEG.2011.DVB.Generalfilm2 Привычный яд.mpg
Формат : MPEG-PS
Размер файла : 1,74 Гбайт
Продолжительность : 57 м. 54 с.
Режим общего битрейта : Переменный
Общий поток : 4296 Кбит/сек

Видео
Идентификатор : 224 (0xE0)
Формат : MPEG Video
Версия формата : Version 2
Профиль формата : Main@Main
Параметр BVOP формата : Да
Параметр матрицы формата : Выборочная
Параметр GOP формата : M=3, N=15
Продолжительность : 57 м. 54 с.
Вид битрейта : Переменный
Битрейт : 3955 Кбит/сек
Максимальный битрейт : 7000 Кбит/сек
Ширина : 720 пикселей
Высота : 576 пикселей
Соотношение сторон : 4:3
Частота кадров : 25,000 кадров/сек
Стандарт вещания : PAL
Цветовое пространство : YUV
Субдискретизация насыщенности : 4:2:0
Битовая глубина : 8 бит
Тип развёртки : Прогрессивная
Порядок развёртки : Нижнее поле первое
Метод сжатия : С потерями
Бит/(Пиксели*Кадры) : 0.381
Временной код первого кадра : 00:00:00:00
Оригинал временного кода : Group of pictures header
GOP, открыто/закрыто : Открыто
GOP, открыто/закрыто на первом кадре : Закрыто
Размер потока : 1,60 Гбайт (92%)

Аудио
Идентификатор : 193 (0xC1)
Формат : MPEG Audio
Версия формата : Version 1
Профиль формата : Layer 2
Продолжительность : 57 м. 54 с.
Вид битрейта : Постоянный
Битрейт : 256 Кбит/сек
Каналы : 2 канала
Частота : 48,0 КГц
Метод сжатия : С потерями
Размер потока : 106 Мбайт (6%)



Скачать Привычный.яд.Our.daily.poison.[2011.документальный.DVB].[DVO].torrent без регистрации
Золото ЗОЛОТАЯ РАЗДАЧА! СКАЧАННОЕ НЕ ЗАСЧИТЫВАЕТСЯ! Золото
Дата: Зарегистрирован   [ Тип: внутренний ] Как тут cкачать?
MAGNET ссылка
MAGNET ссылка


Скачать .torrent

19 KB

Статус: проверено DHT
Скачан: торрент - 27 раз, раздача полностью - 2 раз
Размер: 3,66 GB
Оценка:  - (Голосов: 0)
Поблагодарили: 0
Поделиться ссылкой на эту раздачу с друзьями:
В контактеFacebookОдноклассникиTwitterLivejournalМой МирLiveinternet
 

 
Показать сообщения:    


Вы не можете начинать темы
Вы не можете отвечать на сообщения
Вы не можете редактировать свои сообщения
Вы не можете удалять свои сообщения
Вы не можете голосовать в опросах
Вы не можете прикреплять файлы к сообщениям
Вы можете скачивать файлы