Loading...
Error

Скачать Внимание: эти лекарства могут вас убить / Warning: This Drug May Kill You (Перри Пельтц) [2017, документальный, WEBRip] [1080p] [DVO (RecentFilms)] торрент без регистрации

Статистика раздачи
Размер:  2,77 GB   |    Скачан:  27 раз
Сидов:  1  [  0 KB/s  ]  
 
 
 
Автор Сообщение

Marsianka

[] 

Информация о фильме
Название: Внимание: эти лекарства могут вас убить
Оригинальное название: Warning: This Drug May Kill You

Год выхода: 2017
Жанр: документальный
Режиссер: Перри Пельтц
О фильме:
Фильм рассказывает про то, как мощные обезболивающие, принимаемые пациентами по рецептам врачей, приводят к наркотической зависимости, а зачастую, к смерти. Вы увидите четыре истории четырех семей, которые столкнулись с этой ужасной проблемой.



Страна: США
Продолжительность: 00:59:22
Перевод: Любительский (двухголосый закадровый) | RecentFilms

Файл
Кодек: MPEG-4 AVC/H.264
Качество: WEBRip 1080p
Видео: 1920x1080, 23,976 fps, ~6475 Kbps, 0.130 bit/pixel

Аудио rus: AC3, 48 kHz, 2 ch, 192 Kbps
Субтитры: отсутствуют
Реклама: присутствует

Семпл

General
Unique ID : 216236185117553034827260132169112800953 (0xA2AD930BBBE367ED9DE4D1A0C0EACEB9)
Complete name : F:FilmsWarning.This.Drug.May.Kill.You.2017.1080p.WEBRip.RecentFilmsWarning.This.Drug.May.Kill.You.2017.1080p.WEBRip.RecentFilms.mkv
Format : Matroska
Format version : Version 4 / Version 2
File size : 2.77 GiB
Duration : 59mn 22s
Overall bit rate : 6 670 Kbps
Encoded date : UTC 2017-11-08 15:22:49
Writing application : mkvmerge v17.0.0 ('Be Ur Friend') 64-bit
Writing library : libebml v1.3.5 + libmatroska v1.4.8

Video
ID : 1
Format : AVC
Format/Info : Advanced Video Codec
Format profile : High@L4
Format settings, CABAC : No
Format settings, ReFrames : 1 frame
Codec ID : V_MPEG4/ISO/AVC
Duration : 59mn 22s
Bit rate : 6 475 Kbps
Width : 1 920 pixels
Height : 1 080 pixels
Display aspect ratio : 16:9
Frame rate mode : Constant
Frame rate : 23.976 (24000/1001) fps
Original frame rate : 23.976 (23976/1000) fps
Color space : YUV
Chroma subsampling : 4:2:0
Bit depth : 8 bits
Scan type : Progressive
Bits/(Pixel*Frame) : 0.130
Stream size : 2.69 GiB (97%)
Writing library : x264 core 148 r2665 a01e339
Encoding settings : cabac=0 / ref=1 / deblock=1:0:0 / analyse=0x3:0x113 / me=hex / subme=7 / psy=1 / psy_rd=1.00:0.00 / mixed_ref=0 / me_range=16 / chroma_me=1 / trellis=1 / 8x8dct=1 / cqm=0 / deadzone=21,11 / fast_pskip=1 / chroma_qp_offset=-2 / threads=12 / lookahead_threads=2 / sliced_threads=0 / nr=0 / decimate=1 / interlaced=0 / bluray_compat=0 / constrained_intra=0 / bframes=0 / weightp=2 / keyint=250 / keyint_min=23 / scenecut=40 / intra_refresh=0 / rc_lookahead=40 / rc=abr / mbtree=1 / bitrate=6475 / ratetol=1.0 / qcomp=0.60 / qpmin=0 / qpmax=69 / qpstep=4 / ip_ratio=1.40 / aq=1:1.00
Default : Yes
Forced : No

Audio
ID : 2
Format : AC-3
Format/Info : Audio Coding 3
Mode extension : CM (complete main)
Format settings, Endianness : Big
Codec ID : A_AC3
Duration : 59mn 22s
Bit rate mode : Constant
Bit rate : 192 Kbps
Channel(s) : 2 channels
Channel positions : Front: L R
Sampling rate : 48.0 KHz
Frame rate : 31.250 fps (1536 spf)
Compression mode : Lossy
Stream size : 81.5 MiB (3%)
Default : Yes
Forced : No
Релиз от: RecentFilms



Скачать Внимание.эти.лекарства.могут.вас.убить.Warning.This.Drug.May.Kill.You.(Перри.Пельтц).[2017.документальный.WEBRip].[1080p].[DVO.(RecentFilms)].torrent без регистрации
Золото ЗОЛОТАЯ РАЗДАЧА! СКАЧАННОЕ НЕ ЗАСЧИТЫВАЕТСЯ! Золото
Дата: Зарегистрирован   [ Тип: внутренний ] Как тут cкачать?
MAGNET ссылка
MAGNET ссылка


Скачать .torrent

15 KB

Статус: проверено DHT
Скачан: торрент - 27 раз, раздача полностью - 2 раз
Размер: 2,77 GB
Оценка:  - (Голосов: 0)
Поблагодарили: 0
Поделиться ссылкой на эту раздачу с друзьями:
В контактеFacebookОдноклассникиTwitterLivejournalМой МирLiveinternet
 

 
Показать сообщения:    


Вы не можете начинать темы
Вы не можете отвечать на сообщения
Вы не можете редактировать свои сообщения
Вы не можете удалять свои сообщения
Вы не можете голосовать в опросах
Вы не можете прикреплять файлы к сообщениям
Вы можете скачивать файлы