Loading...
Error

Скачать Охотники за разумом / Mindhunters (Ренни Харлин) [2004, триллер, криминал, детектив, WEB-DLRip-AVC] [Open Matte] [Dub (R5)]+[Sub Rus, Eng]x2 торрент без регистрации

Статистика раздачи
Размер:  2,18 GB   |    Скачан:  32 раза
Сидов:  3  [  0 KB/s  ]  
 
 
 
Автор Сообщение

Marsianka

[] 



Информация о фильме
Название: Охотники за разумом
Оригинальное название: Mindhunters
Год выхода: 2004
Жанр: триллер, криминал, детектив
Режиссер: Ренни Харлин
В ролях: Кэтрин Моррис, Джонни Ли Миллер, ЭлЭл Кул Джей, Кристиан Слэйтер, Клифтон Коллинз мл., Вэл Килмер, Эйон Бэйли, Уилл Кемп, Патрисия Веласкес, Кассандра Белл

О фильме:
На удаленном острове семь будущих агентов ФБР проходят решающий тест, чтобы попасть в элитный отдел «охотников за разумом» — людей, по мельчайшим уликам и любым сведениям составляющих психологические профили опаснейших преступников.

Но испытание становится слишком реальным, когда в их группе оказывается настоящий серийный убийца. Успеют ли оставшиеся в живых выявить маньяка в своих рядах, пока он не расправился с каждым поодиночке?



Страна: США, Нидерланды, Великобритания, Финляндия
Студия: Avenue Pictures Productions, Dimension Films, Weed Road Pictures
Продолжительность: 01:45:52
Перевод: Профессиональный (дублированный) R5

Файл
Качество: WEB-DLRip-AVC
Формат: Matroska
Видео: 1024x576 at 23.976 fps, High@L4.1, ~2495 kbps
Aудио: 48 kHz, AC3, 3/2 (L,C,R,l,r) + LFE ch, ~448 kbps
Субтитры: Russian, English

General
Unique ID : 127482877938369579660745721101072655926 (0x5FE84F27D9AB68214D04020665A2E636)
Complete name : F:FILMSОхотники за разумом.1994.WEB_DLRIP-AVC.D.Open Matte.[-=DoMiNo=-].mkv
Format : Matroska
Format version : Version 4 / Version 2
File size : 2.18 GiB
Duration : 1 h 45 min
Overall bit rate : 2 946 kb/s
Movie name : Охотники за разумом
Deion : На удаленном острове семь будущих агентов ФБР проходят решающий тест, чтобы попасть в элитный отдел «охотников за разумом» — людей, по мельчайшим уликам и любым сведениям составляющих психологические профили опаснейших преступников. / / Но испытание становится слишком реальным, когда в их группе оказывается настоящий серийный убийца. Успеют ли оставшиеся в живых выявить маньяка в своих рядах, пока он не расправился с каждым поодиночке?
Writing application : XviD4PSP 7.0.418 DAILY
Writing library : Lavf57.71.100
ErrorDetectionType : Per level 1
Attachments : poster.jpg
ACTORS : Кэтрин Моррис, Джонни Ли Миллер, ЭлЭл Кул Джей, Кристиан Слэйтер, Клифтон Коллинз мл., Вэл Килмер, Эйон Бэйли, Уилл Кемп, Патрисия Веласкес, Кассандра Белл, Даниэль Бойсевайн, Энтони Камерлинг, Жасмин Сендар, Тревор Уайт
COMPOSER : Туомас Кантелинен
COUNTRY : Нидерланды, Великобритания, Финляндия, США
DATE : 2004
DIRECTOR : Ренни Харлин
ENCODING_INFO : MATROSKA,WEBM > MKV Произвольный / H264 > X264 VBR-2P 2495kbps Произвольный / AC3 > COPY Безопасное
GENRE : ужасы, триллер, криминал, детектив
HD_VIDEO : 1
IMDB_RATING : 6.40
ITUNEXTC : mpaa|R|400|
Language : und
MEDIA_TYPE : 9
ORIGINAL_ACTORS : Kathryn Morris, Jonny Lee Miller, LL Cool J, Christian Slater, Clifton Collins Jr., Val Kilmer, Eion Bailey, Will Kemp, Patricia Velasquez, Cassandra Bell, Daniël Boissevain, Antonie Kamerling (в титрах: Anthone Kamerling), Jasmine Sendar, Trevor White
ORIGINAL_TITLE : Mindhunters
PRODUCER : Кэри Брокау, Акива Голдсман, Джеффри Сильвер, Ребекка Спайкингс, Мориц Борман, Ганс де Веерс, Гай Ист, Эрвин Годшалк, Ренни Харлин, Бэзил Иваник, Роберт Ф. Ньюмайер, Сьюзэн Э. Новик, Найджел Синклер, Скотт Штраусс, Боб Вайнштейн, Харви Вайнштейн
RATING : 7.540
WRITER : Уэйн Крэймер, Кевин Бродбин

Video
ID : 1
Format : AVC
Format/Info : Advanced Video Codec
Format profile : High@L4.1
Format settings : CABAC / 11 Ref Frames
Format settings, CABAC : Yes
Format settings, RefFrames : 11 frames
Codec ID : V_MPEG4/ISO/AVC
Duration : 1 h 45 min
Bit rate : 2 495 kb/s
Width : 1 024 pixels
Height : 576 pixels
Display aspect ratio : 16:9
Frame rate mode : Constant
Frame rate : 23.976 (24000/1001) FPS
Color space : YUV
Chroma subsampling : 4:2:0
Bit depth : 8 bits
Scan type : Progressive
Bits/(Pixel*Frame) : 0.176
Stream size : 1.81 GiB (83%)
Title : RIP_BY_-=DoMiNo=-
Writing library : x264 core 152 r2851M ba24899
Encoding settings : cabac=1 / ref=11 / deblock=1:-3:-3 / analyse=0x3:0x133 / me=umh / subme=10 / psy=1 / psy_rd=1.00:0.05 / mixed_ref=1 / me_range=32 / chroma_me=1 / trellis=2 / 8x8dct=1 / cqm=0 / deadzone=21,11 / fast_pskip=1 / chroma_qp_offset=-3 / threads=5 / lookahead_threads=1 / sliced_threads=0 / nr=0 / decimate=1 / interlaced=0 / bluray_compat=0 / constrained_intra=0 / bframes=10 / b_pyramid=2 / b_adapt=2 / b_bias=0 / direct=3 / weightb=1 / open_gop=0 / weightp=2 / keyint=240 / keyint_min=24 / scenecut=40 / intra_refresh=0 / rc_lookahead=60 / rc=2pass / mbtree=1 / bitrate=2495 / ratetol=1.0 / qcomp=0.65 / qpmin=0 / qpmax=69 / qpstep=4 / cplxblur=20.0 / qblur=0.5 / ip_ratio=1.40 / aq=1:1.00
Language : English
Default : Yes
Forced : No
Color range : Limited
Color primaries : BT.709
Transfer characteristics : BT.709
Matrix coefficients : BT.709

Audio
ID : 2
Format : AC-3
Format/Info : Audio Coding 3
Format settings, Endianness : Big
Codec ID : A_AC3
Duration : 1 h 45 min
Bit rate mode : Constant
Bit rate : 448 kb/s
Channel(s) : 6 channels
Channel positions : Front: L C R, Side: L R, LFE
Sampling rate : 48.0 kHz
Frame rate : 31.250 FPS (1536 SPF)
Bit depth : 16 bits
Compression mode : Lossy
Stream size : 340 MiB (15%)
Title : AC3 5.1 448Kbps (Дубляж)
Language : Russian
Service kind : Complete Main
Default : Yes
Forced : No

Text #1
ID : 3
Format : UTF-8
Codec ID : S_TEXT/UTF8
Codec ID/Info : UTF-8 Plain Text
Duration : 1 h 39 min
Language : Russian
Default : Yes
Forced : No

Text #2
ID : 4
Format : UTF-8
Codec ID : S_TEXT/UTF8
Codec ID/Info : UTF-8 Plain Text
Duration : 1 h 39 min
Title : SDH
Language : English
Default : No
Forced : No





Скачать Охотники.за.разумом.Mindhunters.(Ренни.Харлин).[2004.триллер.криминал.детектив.WEB-DLRip-AVC].[Open.Matte].[Dub.(R5)]+[Sub.Rus.Eng]x2.torrent без регистрации
Золото ЗОЛОТАЯ РАЗДАЧА! СКАЧАННОЕ НЕ ЗАСЧИТЫВАЕТСЯ! Золото
Дата: Зарегистрирован   [ Тип: внешний ] Как тут cкачать?
MAGNET ссылка
MAGNET ссылка


Скачать .torrent

13 KB

Статус: проверено DHT
Скачан: торрент - 32 раз, раздача полностью - 9 раз
Размер: 2,18 GB
Оценка:  5 (Голосов: 1)
Поблагодарили: 1
Поделиться ссылкой на эту раздачу с друзьями:
В контактеFacebookОдноклассникиTwitterLivejournalМой МирLiveinternet
 

 
Показать сообщения:    


Вы не можете начинать темы
Вы не можете отвечать на сообщения
Вы не можете редактировать свои сообщения
Вы не можете удалять свои сообщения
Вы не можете голосовать в опросах
Вы не можете прикреплять файлы к сообщениям
Вы можете скачивать файлы