Loading...
Error

Скачать Леший / Man-Thing (Бретт Леонард) [2005, ужасы, фантастика, боевик, приключения, HDTVRip] [720p] [Dub] торрент без регистрации

Статистика раздачи
Размер:  1,66 GB   |    Скачан:  15 раз

Полного источника не было: 25 минут

 
 
 
Автор Сообщение

Marsianka

[] 

Год выпуска: 2005
Оригинальное название: Man-Thing
Страна: США, Германия, Австралия
Жанр: ужасы, фантастика, боевик, приключения
Возраст: 16+

Режиссер: Бретт Леонард

В ролях: Мэттью Ле Невез, Рэйчел Тейлор, Джек Томпсон, Равири Паратене, Алекс О’Локлин, Стив Бастони, Роберт Маммоне, Патрик Томпсон, Уильям Заппа, Джон Батчелор

Описание: Молодой шериф Кайл Уильямс зря надеется, что в тихом городке Байуотер его ждет спокойная жизнь. Серия загадочных убийств заставляет его поверить, что в глухих болотах близ города кроется нечто таинственное, убивающее людей. Индейцы предупреждают Кайла, что в их краях пробудилась страшная древняя сила, но местный нефтяной магнат Шист, стремящийся прибрать к рукам бескрайние топи, не верит в мифы.

По ночам из болот доносятся ужасающие стоны и крики, в воздухе нависла атмосфера гнетущего страха, и Кайл решает сам отправиться в топкую глушь на поиски истины. Там, в зловещем мраке вековых зарослей, его ждет роковая встреча с грозным хранителем диких болот…



Продолжительность: 1:33:10
Перевод: Дублированный
Оригинальная дорожка: нет

Автор рипа:

Качество видео: HDTVRip 720p
Видео кодек: MPEG-4 AVC Аудио кодек: AAC
Видео: 1280x720 (16:9) at 25.000 fps, AVC at 2 410 kbps avg, 0.105 bit/pixel
Аудио №1 Rus: 48.0 KHz, AAC, 2 ch, 128.0 Kbps
Субтитры: нет
Навигация по главам: есть
Размер: 1.66 GiB
avs [info]: 1280x720p 1:1 @ 25/1 fps (cfr)
x264 [info]: using SAR=1/1
x264 [info]: using cpu capabilities: MMX2 SSE2Fast SSSE3 Cache64
x264 [info]: profile High, level 4.1
x264 [info]: frame I:1301 Avg QP:16.24 size: 74078
x264 [info]: frame P:33602 Avg QP:19.44 size: 24177
x264 [info]: frame B:104853 Avg QP:21.43 size: 7393
x264 [info]: consecutive B-frames: 2.0% 2.3% 6.9% 50.8% 16.0% 19.0% 3.0%
x264 [info]: mb I I16..4: 6.9% 82.9% 10.1%
x264 [info]: mb P I16..4: 1.9% 10.0% 0.6% P16..4: 44.8% 20.0% 11.1% 0.0% 0.0% skip:11.6%
x264 [info]: mb B I16..4: 0.1% 0.8% 0.1% B16..8: 37.5% 6.1% 1.2% direct: 4.9% skip:49.3% L0:43.2% L1:48.6% BI: 8.3%
x264 [info]: 8x8 transform intra:80.3% inter:80.4%
x264 [info]: coded y,uvDC,uvAC intra: 66.4% 73.7% 35.0% inter: 17.7% 23.1% 0.5%
x264 [info]: i16 v,h,dc,p: 38% 14% 7% 41%
x264 [info]: i8 v,h,dc,ddl,ddr,vr,hd,vl,hu: 19% 15% 22% 5% 8% 9% 8% 8% 7%
x264 [info]: i4 v,h,dc,ddl,ddr,vr,hd,vl,hu: 25% 16% 13% 6% 10% 10% 8% 7% 5%
x264 [info]: i8c dc,h,v,p: 53% 18% 21% 8%
x264 [info]: Weighted P-Frames: Y:6.8% UV:3.6%
x264 [info]: ref P L0: 49.0% 11.7% 16.4% 6.2% 5.0% 3.9% 3.4% 2.1% 2.1% 0.1% 0.0%
x264 [info]: ref B L0: 80.4% 8.8% 4.3% 2.1% 1.7% 1.4% 0.9% 0.4%
x264 [info]: ref B L1: 96.1% 3.9%
x264 [info]: kb/s:2409.90
encoded 139756 frames, 1.83 fps, 2409.90 kb/s
General
Complete name : ...Leshij_2005_KinoGadget.mp4
Format : MPEG-4
Format profile : Base Media
Codec ID : isom (isom)
File size : 1.66 GiB
Duration : 1 h 33 min
Overall bit rate mode : Variable
Overall bit rate : 2 546 kb/s
Movie name : Леший | KinoGadget
Performer : Бретт Леонард
Director : Бретт Леонард
Actor : Мэттью Ле Невез / Рэйчел Тейлор / Джек Томпсон / Равири Паратене / Алекс О’Локлин / Стив Бастони / Роберт Маммоне / Патрик Томпсон / Уильям Заппа / Джон Батчелор
Screenplay by : Ганс Родионофф / Стив Гербер
Producer : Ави Арад / Скотт Кэрол / Кристофер Петцель
Genre : Action, Adventure, Horror
ContentType : Short Film
Recorded date : 2005
Encoded date : UTC 2017-11-08 17:09:31
Tagged date : UTC 2017-11-11 12:06:16
Cover : Yes
ContentRating : mpaa|R|400|
LongDeion : Молодой шериф Кайл Уильямс зря надеется, что в тихом городке Байуотер его ждет спокойная жизнь. Серия загадочных убийств заставляет его поверить, что в глухих болотах близ города кроется нечто таинственное, убивающее людей. Индейцы предупреждают Кайла, что в их краях пробудилась страшная древняя сила, но местный нефтяной магнат Шист, стремящийся прибрать к рукам бескрайние топи, не верит в мифы.
HDVideo : Yes

Video
ID : 1
Format : AVC
Format/Info : Advanced Video Codec
Format profile : High@L4.1
Format settings, CABAC : Yes
Format settings, ReFrames : 9 frames
Codec ID : avc1
Codec ID/Info : Advanced Video Coding
Duration : 1 h 33 min
Bit rate : 2 410 kb/s
Maximum bit rate : 13.4 Mb/s
Width : 1 280 pixels
Height : 720 pixels
Display aspect ratio : 16:9
Frame rate mode : Constant
Frame rate : 25.000 FPS
Color space : YUV
Chroma subsampling : 4:2:0
Bit depth : 8 bits
Scan type : Progressive
Bits/(Pixel*Frame) : 0.105
Stream size : 1.57 GiB (95%)
Writing library : x264 core 148 r2744 b97ae06
Encoding settings : cabac=1 / ref=9 / deblock=1:-2:-1 / analyse=0x3:0x113 / me=umh / subme=7 / psy=1 / psy_rd=1.00:0.00 / mixed_ref=1 / me_range=32 / chroma_me=1 / trellis=2 / 8x8dct=1 / cqm=0 / deadzone=21,11 / fast_pskip=0 / chroma_qp_offset=-2 / threads=3 / lookahead_threads=1 / sliced_threads=0 / nr=0 / decimate=1 / interlaced=0 / bluray_compat=0 / constrained_intra=0 / bframes=6 / b_pyramid=2 / b_adapt=2 / b_bias=0 / direct=1 / weightb=1 / open_gop=0 / weightp=2 / keyint=250 / keyint_min=25 / scenecut=40 / intra_refresh=0 / rc_lookahead=60 / rc=crf / mbtree=1 / crf=20.0 / qcomp=0.60 / qpmin=0 / qpmax=69 / qpstep=4 / vbv_maxrate=62500 / vbv_bufsize=78125 / crf_max=0.0 / nal_hrd=none / filler=0 / ip_ratio=1.40 / aq=1:1.00
Encoded date : UTC 2017-11-08 16:50:42
Tagged date : UTC 2017-11-08 17:10:14

Audio
ID : 2
Format : AAC
Format/Info : Advanced Audio Codec
Format profile : LC
Codec ID : 40
Duration : 1 h 33 min
Bit rate mode : Variable
Bit rate : 128 kb/s
Maximum bit rate : 135 kb/s
Channel(s) : 2 channels
Channel positions : Front: L R
Sampling rate : 48.0 kHz
Frame rate : 46.875 FPS (1024 spf)
Compression mode : Lossy
Stream size : 85.3 MiB (5%)
Language : Russian
Encoded date : UTC 2017-11-08 16:54:22
Tagged date : UTC 2017-11-08 17:10:14

Menu
Данный рип предназначен для просмотра на мобильных гаджетах с поддержкой формата mp4



Скачать Леший.Man-Thing.(Бретт.Леонард).[2005.ужасы.фантастика.боевик.приключения.HDTVRip].[720p].[Dub].torrent без регистрации
Золото ЗОЛОТАЯ РАЗДАЧА! СКАЧАННОЕ НЕ ЗАСЧИТЫВАЕТСЯ! Золото
Дата: Зарегистрирован   [ Тип: внутренний ] Как тут cкачать?
MAGNET ссылка
MAGNET ссылка


Скачать .torrent

18 KB

Статус: проверено DHT
Скачан: торрент - 15 раз, раздача полностью - 3 раз
Размер: 1,66 GB
Оценка:  - (Голосов: 0)
Поблагодарили: 0
Поделиться ссылкой на эту раздачу с друзьями:
В контактеFacebookОдноклассникиTwitterLivejournalМой МирLiveinternet
 

 
Показать сообщения:    


Вы не можете начинать темы
Вы не можете отвечать на сообщения
Вы не можете редактировать свои сообщения
Вы не можете удалять свои сообщения
Вы не можете голосовать в опросах
Вы не можете прикреплять файлы к сообщениям
Вы можете скачивать файлы