Loading...
Error

Скачать Перелом / Fracture (Грегори Хоблит) [2007, триллер, драма, криминал, детектив, WEB-DLRip-AVC] [Open Matte] [Dub ( Blu-ray EUR)]+[Sub Rus, Eng]x2 торрент без регистрации

Статистика раздачи
Размер:  2,18 GB   |    Скачан:  29 раз
Сидов:  1  [  0 KB/s  ]  
 
 
 
Автор Сообщение

Marsianka

[] 

Информация о фильме
Название: Перелом
Оригинальное название: Fracture
Год выхода: 2007
Жанр: триллер, драма, криминал, детектив
Режиссер: Грегори Хоблит
В ролях: Энтони Хопкинс, Райан Гослинг, Дэвид Стрэтэйрн, Розамунд Пайк, Эмбет Дэвидц, Билли Бёрк, Клифф Кёртис, Фиона Шоу, Боб Гантон, Джош Стэмберг

О фильме:
Ассистент окружного прокурора оказывается втянутым в хитроумную игру в «кошки-мышки» человеком, который пытался убить свою жену, но избежал тюремного заключения благодаря нелепой бюрократической ошибке.



Страна: США, Германия
Студия: Castle Rock Entertainment, M7 Filmproduktion, New Line Cinema, Weinstock Productions
Продолжительность: 01:53:32
Перевод: Профессиональный (дублированный) Blu-ray EUR

Файл
Качество: WEB-DLRip-AVC
Формат: Matroska
Видео: 1024x576 at 23.976 fps, High@L4.1, ~2301 kbps
Аудио: 48 kHz, AC3 Dolby Digital, 3/2 (L,C,R,l,r) + LFE ch, ~448 kbps
Субтитры: Russian, English (SDH)
General
Unique ID : 292673660511336693182228853525080677162 (0xDC2EE58C3EC05A4F58866E5B9C3F9B2A)
Complete name : F:FILMSПерелом_2007_O.M_WEB_DLRIP-AVC_[-=DoMiNo=-].mkv
Format : Matroska
Format version : Version 4 / Version 2
File size : 2.18 GiB
Duration : 1 h 53 min
Overall bit rate : 2 752 kb/s
Movie name : Перелом
Deion : Ассистент окружного прокурора оказывается втянутым в хитроумную игру в «кошки-мышки» человеком, который пытался убить свою жену, но избежал тюремного заключения благодаря нелепой бюрократической ошибке.
Writing application : XviD4PSP 7.0.422 DAILY
Writing library : Lavf57.71.100
ErrorDetectionType : Per level 1
Attachments : poster.jpg
ACTORS : Энтони Хопкинс, Райан Гослинг, Дэвид Стрэтэйрн, Розамунд Пайк, Эмбет Дэвидц, Билли Бёрк, Клифф Кёртис, Фиона Шоу, Боб Гантон, Джош Стэмберг, Ксандер Беркли, Зои Казан, Джудит Скотт, Гэри Сервантес, Петреа Бурхард, Гарз Чан, Уэнди Катлер, Ларри Салливан, Валери Диллман, Гонсало Менендес, Вивика Жено, Купер Торнтон, Лайл Кэйнаус, Сандра Проспер, Моника Гарсиа, Джо Спано, Питер Брейтмайер, Миррон Е. Уиллис, Дэвид Пёрдэм, Джон Литтлфилд, Лу Рейс, Рэйни Кервин, Р.Дж. Чэмберс, Юджин Колльер, Том Вирту, Гюнтер Саймон, Фрэнк Торрес, Пэйтон Кох, Купер Кох, Софи Хоблит, Кэролайн Вайнсток, Александр Вайнсток, Михаил Хмуров, Юлия Емелин, Йорго Константин, Алла Корот, Джефф Энден, Кейли Смит Уэстбрук, Ретта, Дон Абернати, Дэвид Кит Андерсон, Рид Армстронг, Шоун Чэпман, Кейт Кларк, Люси Гриффин, Шэрон Джордан, Кейт Крыстовяк, Джонатан Нейшн, Элизабет Ривера, Изабелль Марлоу, Клатанн Томас, Аарон Уайт, Зондра Уилсон, Рэйчел Зескинд
COMPOSER : Джефф Дэнна, Майкл Дэнна
COUNTRY : США, Германия
DATE : 2007
DIRECTOR : Грегори Хоблит
ENCODING_INFO : MATROSKA,WEBM > MKV Произвольный / H264 > X264 VBR-2P 2301kbps Произвольный / AC3 > AC3 CBR 448kbps
GENRE : триллер, драма, криминал, детектив
HD_VIDEO : 1
IMDB_RATING : 7.20
ITUNEXTC : mpaa|R|400|
Language : und
MEDIA_TYPE : 9
ORIGINAL_TITLE : Fracture
PRODUCER : Чарльз Вайнсток, Сэмюэл Дж. Браун, Майкл Диско, Тоби Эммерих, Лиз Глоцер, Беверли Дж. Граф, Хоук Кох, Луиз Роснер
RATING : 7.676
WRITER : Дэниэл Пайн, Гленн Герс

Video
ID : 1
Format : AVC
Format/Info : Advanced Video Codec
Format profile : High@L4.1
Format settings : CABAC / 10 Ref Frames
Format settings, CABAC : Yes
Format settings, ReFrames : 10 frames
Codec ID : V_MPEG4/ISO/AVC
Duration : 1 h 53 min
Bit rate : 2 301 kb/s
Width : 1 024 pixels
Height : 576 pixels
Display aspect ratio : 16:9
Frame rate mode : Constant
Frame rate : 23.976 (24000/1001) FPS
Color space : YUV
Chroma subsampling : 4:2:0
Bit depth : 8 bits
Scan type : Progressive
Bits/(Pixel*Frame) : 0.163
Stream size : 1.78 GiB (82%)
Writing library : x264 core 152 r2851M ba24899
Encoding settings : cabac=1 / ref=10 / deblock=1:-3:-3 / analyse=0x3:0x133 / me=umh / subme=10 / psy=1 / psy_rd=1.00:0.05 / mixed_ref=1 / me_range=32 / chroma_me=1 / trellis=2 / 8x8dct=1 / cqm=0 / deadzone=21,11 / fast_pskip=1 / chroma_qp_offset=-3 / threads=5 / lookahead_threads=1 / sliced_threads=0 / nr=0 / decimate=1 / interlaced=0 / bluray_compat=0 / constrained_intra=0 / bframes=9 / b_pyramid=2 / b_adapt=2 / b_bias=0 / direct=3 / weightb=1 / open_gop=0 / weightp=2 / keyint=240 / keyint_min=24 / scenecut=40 / intra_refresh=0 / rc_lookahead=60 / rc=2pass / mbtree=1 / bitrate=2301 / ratetol=1.0 / qcomp=0.70 / qpmin=0 / qpmax=69 / qpstep=4 / cplxblur=20.0 / qblur=0.5 / ip_ratio=1.40 / aq=1:1.00
Language : English
Default : Yes
Forced : No
Color range : Limited
Color primaries : BT.709
Transfer characteristics : BT.709
Matrix coefficients : BT.709

Audio
ID : 2
Format : AC-3
Format/Info : Audio Coding 3
Codec ID : A_AC3
Duration : 1 h 53 min
Bit rate mode : Constant
Bit rate : 448 kb/s
Channel(s) : 6 channels
Channel positions : Front: L C R, Side: L R, LFE
Sampling rate : 48.0 kHz
Frame rate : 31.250 FPS (1536 SPF)
Bit depth : 16 bits
Compression mode : Lossy
Stream size : 364 MiB (16%)
Title : DUB | BD | Universal Pictures Rus
Language : Russian
Service kind : Complete Main
Default : Yes
Forced : No

Text #1
ID : 3
Format : UTF-8
Codec ID : S_TEXT/UTF8
Codec ID/Info : UTF-8 Plain Text
Duration : 1 h 49 min
Title : Full | BD
Language : Russian
Default : Yes
Forced : No

Text #2
ID : 4
Format : UTF-8
Codec ID : S_TEXT/UTF8
Codec ID/Info : UTF-8 Plain Text
Duration : 1 h 49 min
Title : Original | SDH | BD
Language : English
Default : No
Forced : No

Menu
00:00:00.000 : :Opening Credits
00:07:10.847 : :The Crime
00:12:22.742 : :Negotiations
00:18:11.549 : :Hotshot
00:26:42.893 : :Mingling
00:32:41.543 : :Evidence
00:37:43.678 : :The Interview
00:43:38.324 : :Testimony
00:52:11.712 : :One More Chance
01:00:17.280 : :Investigation
01:07:02.185 : :White or Dark?
01:13:37.955 : :Waiting
01:19:31.684 : :Motion
01:28:27.928 : :Finality
01:39:11.487 : :Double Jeopardy
01:48:56.488 : :End Credits



Скачать Перелом.Fracture.(Грегори.Хоблит).[2007.триллер.драма.криминал.детектив.WEB-DLRip-AVC].[Open.Matte].[Dub.(.Blu-ray.EUR)]+[Sub.Rus.Eng]x2.torrent без регистрации
Золото ЗОЛОТАЯ РАЗДАЧА! СКАЧАННОЕ НЕ ЗАСЧИТЫВАЕТСЯ! Золото
Дата: Зарегистрирован   [ Тип: внутренний ] Как тут cкачать?
MAGNET ссылка
MAGNET ссылка


Скачать .torrent

12 KB

Статус: проверено DHT
Скачан: торрент - 29 раз, раздача полностью - 11 раз
Размер: 2,18 GB
Оценка:  - (Голосов: 0)
Поблагодарили: 0
Поделиться ссылкой на эту раздачу с друзьями:
В контактеFacebookОдноклассникиTwitterLivejournalМой МирLiveinternet
 

 
Показать сообщения:    


Вы не можете начинать темы
Вы не можете отвечать на сообщения
Вы не можете редактировать свои сообщения
Вы не можете удалять свои сообщения
Вы не можете голосовать в опросах
Вы не можете прикреплять файлы к сообщениям
Вы можете скачивать файлы