Loading...
Error

Скачать Запятнанная репутация / The Human Stain (Роберт Бентон) [2003, драма, мелодрама, BDRip] [720p] [Dub]+[DVO]+[AVO]x2+[Eng]+[Sub Rus, Eng]x2 торрент без регистрации

Статистика раздачи
Размер:  5,12 GB   |    Скачан:  10 раз
Сидов:  1  [  0 KB/s  ]  
 
 
 
Автор Сообщение

Marsianka

[] 

Информация о фильме
Название: Запятнанная репутация
Оригинальное название: The Human Stain
Год выпуска: 2003
Жанр: драма, мелодрама
Режиссер: Роберт Бентон
В ролях: Энтони Хопкинс (Coleman Silk), Николь Кидман (Faunia Farley), Эд Харрис (Lester Farley), Гэри Синиз (Nathan Zuckerman), Вентворт Миллер (Young Coleman Silk), Джасинда Бэррет (Steena Paulsson), Гарри Дж. Ленникс (Mr. Silk), Кларк Грегг (Nelson Primus), Анна Дивер Смит (Mrs. Silk), Лизэн Митчелл (Ernestine), Керри Вашингтон (Ellie), Филлис Ньюман (Iris Silk)

О фильме:
Неосторожная шутка, воспринятая как расистское замечание в адрес чернокожих студентов, вынуждает уважаемого профессора Колмана Силка со скандалом покинуть родной университет. Это известие становится фатальным для жены Колмана, которая умирает от сердечного приступа. Убитый горем профессор отчаянно пытается восстановить запятнанную репутацию, но знакомство с молодой уборщицей Фонией дарит ему неожиданное утешение. Поставив на кон свою репутацию, Колман безоглядно отдается новому чувству и вскоре между ним и яркой и неукротимой женщиной, чьи несчастья умножает муж-психопат вспыхивает страстная любовь. Однако их сложные отношения внезапно оказываются под угрозой, когда становится ясно, что Колмана и Фонию объединяет не только страсть, но и мрачные тайны, которые они так долго хранили в своей душе...



MPAA: R - Лицам до 17 лет обязательно присутствие взрослого

Страна: Германия, Франция, США
Студия: Lakeshore Entertainment, Miramax Films, Stone Village Productions
Продолжительность: 01:47:46
Профессиональный (дублированный) + Профессиональный (двухголосый, закадровый) DDV + Авторский (одноголосый, закадровый) Е.Рудой + Авторский (одноголосый, закадровый) Ю.Сербин
Файл
Качество: BDRip 720p
Формат: Matroska
Видео: 1280x542 at 23.976 fps, x264@L4.1, ~4427 kbps avg
Аудио#1: Russian: 48 kHz, AC3, 3/2 (L,C,R,l,r) + LFE ch, ~448 kbps avg |Дубляж|
Аудио#2: Russian: 48 kHz, AC3, 3/2 (L,C,R,l,r) + LFE ch, ~448 kbps avg |Двухголосый закадровый, DDV|
Аудио#3: Russian: 48 kHz, AC3, 3/2 (L,C,R,l,r) + LFE ch, ~448 kbps avg |Авторский, Е.Рудой|
Аудио#4: Russian: 48 kHz, AC3, 3/2 (L,C,R,l,r) + LFE ch, ~448 kbps avg |Авторский, Ю.Сербин|
Аудио#5: English: 48 kHz, AC3, 3/2 (L,C,R,l,r) + LFE ch, ~448 kbps avg
Cубтитры: Russian, English
***Сохранены оригинальные главы как на Blu-ray.
***Релиз - msltel.
Фильм снят по мотивам романа Филипа Рота «Людское клеймо» (The Human Stain, 2000).
Общее
Уникальный идентификатор : 214900242080313300676927287975468890097 (0xA1AC47F7FEBB7D8BAF1D0951EEE077F1)
Полное имя : Запятнанная репутация.2003.BDRip.720p by msltel.mkv
Формат : Matroska
Версия формата : Version 4 / Version 2
Размер файла : 5,12 Гбайт
Продолжительность : 1 ч. 47 м.
Общий поток : 6802 Кбит/сек
Название фильма : Rip by msltel
Дата кодирования : UTC 2017-11-13 02:29:35
Программа кодирования : mkvmerge v8.2.0 ('World of Adventure') 64bit
Библиотека кодирования : libebml v1.3.1 + libmatroska v1.4.2

Видео
Идентификатор : 1
Формат : AVC
Формат/Информация : Advanced Video Codec
Профиль формата : High@L4.1
Параметр CABAC формата : Да
Параметр ReFrames формата : 9 кадров
Идентификатор кодека : V_MPEG4/ISO/AVC
Продолжительность : 1 ч. 47 м.
Битрейт : 4427 Кбит/сек
Ширина : 1280 пикселей
Высота : 542 пикселя
Соотношение сторон : 2,35:1
Режим частоты кадров : Постоянный
Частота кадров : 23,976 кадра/сек
Цветовое пространство : YUV
Субдискретизация насыщенности : 4:2:0
Битовая глубина : 8 бит
Тип развёртки : Прогрессивная
Бит/(Пиксели*Кадры) : 0.266
Размер потока : 3,33 Гбайт (65%)
Библиотека кодирования : x264 core 146 r2538 121396c
Настройки программы : cabac=1 / ref=9 / deblock=1:-3:-2 / analyse=0x3:0x113 / me=umh / subme=11 / psy=1 / psy_rd=1.00:0.15 / mixed_ref=1 / me_range=32 / chroma_me=1 / trellis=2 / 8x8dct=1 / cqm=0 / deadzone=21,11 / fast_pskip=0 / chroma_qp_offset=-3 / threads=6 / lookahead_threads=1 / sliced_threads=0 / nr=0 / decimate=1 / interlaced=0 / bluray_compat=0 / constrained_intra=0 / bframes=8 / b_pyramid=2 / b_adapt=2 / b_bias=0 / direct=1 / weightb=1 / open_gop=0 / weightp=2 / keyint=230 / keyint_min=23 / scenecut=40 / intra_refresh=0 / rc_lookahead=40 / rc=crf / mbtree=0 / crf=18.0 / qcomp=0.60 / qpmin=0 / qpmax=69 / qpstep=4 / vbv_maxrate=62500 / vbv_bufsize=78125 / crf_max=0.0 / nal_hrd=none / filler=0 / ip_ratio=1.40 / pb_ratio=1.30 / aq=1:1.00
Язык : English
Default : Да
Forced : Нет

Аудио #1
Идентификатор : 2
Формат : AC-3
Формат/Информация : Audio Coding 3
Расширение режима : CM (complete main)
Параметр Endianness формата : Big
Идентификатор кодека : A_AC3
Продолжительность : 1 ч. 47 м.
Вид битрейта : Постоянный
Битрейт : 448 Кбит/сек
Каналы : 6 каналов
Расположение каналов : Front: L C R, Side: L R, LFE
Частота : 48,0 КГц
Битовая глубина : 16 бит
Метод сжатия : С потерями
Размер потока : 345 Мбайт (7%)
Заголовок : DUB
Язык : Russian
Default : Да
Forced : Нет

Аудио #2
Идентификатор : 3
Формат : AC-3
Формат/Информация : Audio Coding 3
Расширение режима : CM (complete main)
Параметр Endianness формата : Big
Идентификатор кодека : A_AC3
Продолжительность : 1 ч. 47 м.
Вид битрейта : Постоянный
Битрейт : 448 Кбит/сек
Каналы : 6 каналов
Расположение каналов : Front: L C R, Side: L R, LFE
Частота : 48,0 КГц
Битовая глубина : 16 бит
Метод сжатия : С потерями
Размер потока : 345 Мбайт (7%)
Заголовок : DVO DDV
Язык : Russian
Default : Нет
Forced : Нет

Аудио #3
Идентификатор : 4
Формат : AC-3
Формат/Информация : Audio Coding 3
Расширение режима : CM (complete main)
Параметр Endianness формата : Big
Идентификатор кодека : A_AC3
Продолжительность : 1 ч. 47 м.
Вид битрейта : Постоянный
Битрейт : 448 Кбит/сек
Каналы : 6 каналов
Расположение каналов : Front: L C R, Side: L R, LFE
Частота : 48,0 КГц
Битовая глубина : 16 бит
Метод сжатия : С потерями
Размер потока : 345 Мбайт (7%)
Заголовок : Евгений Рудой
Язык : Russian
Default : Нет
Forced : Нет

Аудио #4
Идентификатор : 5
Формат : AC-3
Формат/Информация : Audio Coding 3
Расширение режима : CM (complete main)
Параметр Endianness формата : Big
Идентификатор кодека : A_AC3
Продолжительность : 1 ч. 47 м.
Вид битрейта : Постоянный
Битрейт : 448 Кбит/сек
Каналы : 6 каналов
Расположение каналов : Front: L C R, Side: L R, LFE
Частота : 48,0 КГц
Битовая глубина : 16 бит
Метод сжатия : С потерями
Размер потока : 345 Мбайт (7%)
Заголовок : Юрий Сербин
Язык : Russian
Default : Нет
Forced : Нет

Аудио #5
Идентификатор : 6
Формат : AC-3
Формат/Информация : Audio Coding 3
Расширение режима : CM (complete main)
Параметр Endianness формата : Big
Идентификатор кодека : A_AC3
Продолжительность : 1 ч. 47 м.
Вид битрейта : Постоянный
Битрейт : 448 Кбит/сек
Каналы : 6 каналов
Расположение каналов : Front: L C R, Side: L R, LFE
Частота : 48,0 КГц
Битовая глубина : 16 бит
Метод сжатия : С потерями
Размер потока : 345 Мбайт (7%)
Заголовок : original
Язык : English
Default : Нет
Forced : Нет

Текст #1
Идентификатор : 7
Формат : UTF-8
Идентификатор кодека : S_TEXT/UTF8
Идентификатор кодека/Информация : UTF-8 Plain Text
Заголовок : русские
Язык : Russian
Default : Нет
Forced : Нет

Текст #2
Идентификатор : 8
Формат : UTF-8
Идентификатор кодека : S_TEXT/UTF8
Идентификатор кодека/Информация : UTF-8 Plain Text
Заголовок : английские
Язык : English
Default : Нет
Forced : Нет

Меню
00:00:00.000 : :Chapter 01
00:08:49.654 : :Chapter 02
00:14:44.008 : :Chapter 03
00:22:30.390 : :Chapter 04
00:30:38.169 : :Chapter 05
00:38:05.699 : :Chapter 06
00:48:13.515 : :Chapter 07
00:58:42.185 : :Chapter 08
01:08:14.215 : :Chapter 09
01:12:58.290 : :Chapter 10
01:23:42.142 : :Chapter 11
01:34:31.582 : :Chapter 12
01:43:03.510 : :Chapter 13
01:47:46.376 : :Chapter 14



Скачать Запятнанная.репутация.The.Human.Stain.(Роберт.Бентон).[2003.драма.мелодрама.BDRip].[720p].[Dub]+[DVO]+[AVO]x2+[Eng]+[Sub.Rus.Eng]x2.torrent без регистрации
Золото ЗОЛОТАЯ РАЗДАЧА! СКАЧАННОЕ НЕ ЗАСЧИТЫВАЕТСЯ! Золото
Дата: Зарегистрирован   [ Тип: внутренний ] Как тут cкачать?
MAGNET ссылка
MAGNET ссылка


Скачать .torrent

27 KB

Статус: проверено DHT
Скачан: торрент - 10 раз, раздача полностью - 1 раз
Размер: 5,12 GB
Оценка:  - (Голосов: 0)
Поблагодарили: 0
Поделиться ссылкой на эту раздачу с друзьями:
В контактеFacebookОдноклассникиTwitterLivejournalМой МирLiveinternet
 

 
Показать сообщения:    


Вы не можете начинать темы
Вы не можете отвечать на сообщения
Вы не можете редактировать свои сообщения
Вы не можете удалять свои сообщения
Вы не можете голосовать в опросах
Вы не можете прикреплять файлы к сообщениям
Вы можете скачивать файлы