Loading...
Error

Скачать Мертвая тишина / Dead Silence (Джеймс Ван) [2007, ужасы, BDRip] [720p] [iPad] [MVO] торрент без регистрации

Статистика раздачи
Размер:  1,82 GB   |    Скачан:  36 раз

Полного источника не было: 28 минут

 
 
 
Автор Сообщение

Marsianka

[] 

Год выпуска: 2007
Оригинальное название: Dead Silence
Страна: США
Жанр: ужасы
Возраст: 16+

Режиссер: Джеймс Ван

В ролях: Райан Квантен, Эмбер Валлетта, Донни Уолберг, Майкл Фэйрмэн, Джоан Хини, Боб Гантон, Лора Риган, Дмитрий Чеповецкий, Джудит Робертс, Кейр Гилкрист, Стивен Тейлор, Дэвид Талбот, Стив Адамс, Шелли Петерсон

Описание: Молодая пара, Джемми и Лиза, решили начать новую жизнь в маленьком городке вдали от суеты огромных мегаполисов. Только поселившись в этой заброшенной, запустелой точке на карте, они уже устали слушать сказки о наводняющих дома призраках и всей породы нечисти, обитающей повсюду. Когда Лиза была бесчеловечно убита, Джемми, будучи главным подозреваемым в преступлении, решает провести независимое расследование относительно её загадочной смерти.

Погружаясь в то, что он ещё недавно считал сказками, парень узнает легенду о некой Мэри, дух которой, по словам местных жителей, всё ещё бродит по пустынным улицам города. Всецело отдавшись исследованию прошлого этого места, он вскоре натыкается на самые кровеобильные подробности и навлекает на себя проклятие, которое и стало причиной смерти его супруги.



Продолжительность: 01:31:30
Перевод: Профессиональный многоголосый
Оригинальная дорожка: нет

Автор рипа:

Качество видео: BDRip 720p Исходник: Blu-Ray (1080p) Формат: mp4
Видео кодек: MPEG-4 AVC Аудио кодек: AAC
Видео: 1280x534 (2.40:1) at 23.976 fps, AVC at 2 720 kbps avg, 0.166 bit/pixel
Аудио №1 Rus: 48.0 KHz, AAC, 2 ch, 128.0 Kbps
Субтитры: нет
Навигация по главам: есть
Размер: 1.82 GiB
avs [info]: 1280x534p 1:1 @ 24000/1001 fps (cfr)
x264 [info]: using SAR=1/1
x264 [info]: using cpu capabilities: MMX2 SSE2Fast SSSE3 Cache64
x264 [info]: profile High, level 4.1
x264 [info]: frame I:1097 Avg QP:15.35 size: 83385
x264 [info]: frame P:25238 Avg QP:18.86 size: 27006
x264 [info]: frame B:105304 Avg QP:20.70 size: 10383
x264 [info]: consecutive B-frames: 1.9% 1.4% 3.1% 14.4% 11.4% 50.3% 5.7% 4.5% 2.3% 3.4% 1.6%
x264 [info]: mb I I16..4: 7.1% 76.5% 16.4%
x264 [info]: mb P I16..4: 1.4% 9.9% 1.0% P16..4: 41.0% 20.8% 15.1% 0.0% 0.0% skip:10.7%
x264 [info]: mb B I16..4: 0.1% 1.0% 0.1% B16..8: 43.6% 8.1% 1.9% direct: 5.3% skip:39.9% L0:46.7% L1:47.6% BI: 5.7%
x264 [info]: 8x8 transform intra:81.3% inter:64.9%
x264 [info]: coded y,uvDC,uvAC intra: 78.0% 71.3% 40.6% inter: 23.8% 20.7% 1.1%
x264 [info]: i16 v,h,dc,p: 54% 15% 9% 22%
x264 [info]: i8 v,h,dc,ddl,ddr,vr,hd,vl,hu: 19% 10% 30% 5% 8% 8% 7% 7% 7%
x264 [info]: i4 v,h,dc,ddl,ddr,vr,hd,vl,hu: 28% 13% 17% 6% 9% 8% 7% 6% 5%
x264 [info]: i8c dc,h,v,p: 55% 17% 21% 7%
x264 [info]: Weighted P-Frames: Y:8.7% UV:5.5%
x264 [info]: ref P L0: 44.7% 8.8% 17.6% 7.7% 6.0% 4.6% 3.8% 2.2% 2.3% 2.0% 0.3% 0.0%
x264 [info]: ref B L0: 69.2% 12.8% 7.1% 3.5% 2.7% 2.0% 1.6% 0.7% 0.3%
x264 [info]: ref B L1: 92.2% 7.8%
x264 [info]: kb/s:2719.57
encoded 131639 frames, 1.82 fps, 2719.57 kb/s
General
Complete name : ...Mertvaya_tishina_2007_KinoGadget.mp4
Format : MPEG-4
Format profile : Base Media
Codec ID : isom (isom)
File size : 1.82 GiB
Duration : 1 h 31 min
Overall bit rate mode : Variable
Overall bit rate : 2 855 kb/s
Movie name : Мертвая тишина | KinoGadget
Performer : Джеймс Ван
Director : Джеймс Ван
Actor : Райан Квантен / Эмбер Валлетта / Донни Уолберг / Майкл Фэйрмэн / Джоан Хини / Боб Гантон / Лора Риган / Дмитрий Чеповецкий / Джудит Робертс / Кейр Гилкрист / Стивен Тейлор / Дэвид Талбот / Стив Адамс / Шелли Петерсон
Screenplay by : Ли Уоннелл / Джеймс Ван
Producer : Марк Бёрг / Грегг Хоффман / Орен Каулз
Genre : Horror, Thriller
ContentType : Short Film
Recorded date : 2007
Encoded date : UTC 2017-11-14 07:40:05
Tagged date : UTC 2017-11-14 08:00:17
Cover : Yes
ContentRating : mpaa|R|400|
LongDeion : Молодая пара, Джемми и Лиза, решили начать новую жизнь в маленьком городке вдали от суеты огромных мегаполисов. Только поселившись в этой заброшенной, запустелой точке на карте, они уже устали слушать сказки о наводняющих дома призраках и всей породы нечисти, обитающей повсюду. Когда Лиза была бесчеловечно убита, Джемми, будучи главным подозреваемым в преступлении, решает провести независимое расследование относительно её загадочной смерти.
HDVideo : Yes

Video
ID : 1
Format : AVC
Format/Info : Advanced Video Codec
Format profile : High@L4.1
Format settings, CABAC : Yes
Format settings, ReFrames : 10 frames
Codec ID : avc1
Codec ID/Info : Advanced Video Coding
Duration : 1 h 31 min
Bit rate : 2 720 kb/s
Maximum bit rate : 16.8 Mb/s
Width : 1 280 pixels
Height : 534 pixels
Display aspect ratio : 2.40:1
Frame rate mode : Constant
Frame rate : 23.976 (24000/1001) FPS
Color space : YUV
Chroma subsampling : 4:2:0
Bit depth : 8 bits
Scan type : Progressive
Bits/(Pixel*Frame) : 0.166
Stream size : 1.74 GiB (95%)
Writing library : x264 core 148 r2744 b97ae06
Encoding settings : cabac=1 / ref=10 / deblock=1:-2:-1 / analyse=0x3:0x113 / me=umh / subme=7 / psy=1 / psy_rd=1.00:0.00 / mixed_ref=1 / me_range=32 / chroma_me=1 / trellis=2 / 8x8dct=1 / cqm=0 / deadzone=21,11 / fast_pskip=0 / chroma_qp_offset=-2 / threads=3 / lookahead_threads=1 / sliced_threads=0 / nr=0 / decimate=1 / interlaced=0 / bluray_compat=0 / constrained_intra=0 / bframes=10 / b_pyramid=2 / b_adapt=2 / b_bias=0 / direct=1 / weightb=1 / open_gop=0 / weightp=2 / keyint=250 / keyint_min=25 / scenecut=40 / intra_refresh=0 / rc_lookahead=60 / rc=crf / mbtree=1 / crf=19.0 / qcomp=0.60 / qpmin=0 / qpmax=69 / qpstep=4 / vbv_maxrate=62500 / vbv_bufsize=78125 / crf_max=0.0 / nal_hrd=none / filler=0 / ip_ratio=1.40 / aq=1:1.00
Encoded date : UTC 2017-11-14 04:07:15
Tagged date : UTC 2017-11-14 07:40:53

Audio
ID : 2
Format : AAC
Format/Info : Advanced Audio Codec
Format profile : LC
Codec ID : 40
Duration : 1 h 31 min
Bit rate mode : Variable
Bit rate : 128 kb/s
Maximum bit rate : 135 kb/s
Channel(s) : 2 channels
Channel positions : Front: L R
Sampling rate : 48.0 kHz
Frame rate : 46.875 FPS (1024 spf)
Compression mode : Lossy
Stream size : 83.8 MiB (4%)
Language : Russian
Encoded date : UTC 2017-11-14 04:11:25
Tagged date : UTC 2017-11-14 07:40:53

Menu
Данный рип предназначен для просмотра на мобильных гаджетах с поддержкой формата mp4



Скачать Мертвая.тишина.Dead.Silence.(Джеймс.Ван).[2007.ужасы.BDRip].[720p].[iPad].[MVO].torrent без регистрации
Золото ЗОЛОТАЯ РАЗДАЧА! СКАЧАННОЕ НЕ ЗАСЧИТЫВАЕТСЯ! Золото
Дата: Зарегистрирован   [ Тип: внутренний ] Как тут cкачать?
MAGNET ссылка
MAGNET ссылка


Скачать .torrent

19 KB

Статус: проверено DHT
Скачан: торрент - 36 раз, раздача полностью - 1 раз
Размер: 1,82 GB
Оценка:  5 (Голосов: 1)
Поблагодарили: 1
Поделиться ссылкой на эту раздачу с друзьями:
В контактеFacebookОдноклассникиTwitterLivejournalМой МирLiveinternet
 

 
Показать сообщения:    


Вы не можете начинать темы
Вы не можете отвечать на сообщения
Вы не можете редактировать свои сообщения
Вы не можете удалять свои сообщения
Вы не можете голосовать в опросах
Вы не можете прикреплять файлы к сообщениям
Вы можете скачивать файлы