Loading...
Error

Скачать Острые козырьки / Peaky Blinders (Сезон 04, серии 01-04 из 06) [2017, драма, криминал, HDTVRip] [MVO] (AlexFilm) торрент без регистрации

Статистика раздачи
Размер:  2,74 GB   |    Скачан:  26 раз
Сидов:  11  [  0 KB/s  ]   Личеров:  11  [  0 KB/s  ]  
 
 
 
Автор Сообщение

leon030982

[] 


Заточенные кепки /Острые козырьки / Peaky Blinders


Год выпуска: 2017
Страна: Великобритания
Жанр: драма, криминал
Продолжительность: 1x ~00:59:00
Перевод: Профессиональный (многоголосый) • AlexFilm
Субтитры: нет

Режиссер: Отто Баферст / Otto Bathurst, Том Харпер / Tom Harper

В ролях: Киллиан Мерфи, Пол Андерсон, Иддо Голдберг, Хелен МакКрори, Сэм Нилл, Аннабелль Уоллис, Джо Коул, Элфи Эванс-Мис, Джек Хартли, Кевин Меткалф


Британский сериал о криминальном мире Бирмингема 20-х годов прошлого века, в котором многолюдная семья Шелби стала одной из самых жестоких и влиятельных гангстерских банд послевоенного времени. Фирменным знаком группировки, промышлявшей грабежами и азартными играми, стали зашитые в козырьки лезвия.



Релиз:

Перевод: Виктория Востокова
Монтаж и сведение звука: Михаил Шорыгин
Роли озвучивали:
Евгения Тихонова
Екатерина Муравицкая
Владимир Курдов
Константин Погодаев
Кирилл Патрино
Михаил Суслов


Качество: HDTVRip
Формат: AVI
Видео кодек: XviD
Аудио кодек: MP3
Видео: 720x384, 25 fps, XviD build 65 ~1400 kbps avg
Аудио: 48 kHz, MP3, 2 ch, ~128.00 kbps avg [MVO]
Аудио: 48 kHz, MP3, 2 ch, ~128.00 kbps avg [ENG]

Торент обновлен! добавлена 4-я серия
General
Complete name : E:\Peaky.Blinders - Season 4 (AlexFilm) HDTVRip\Peaky.Blinders.s04e01.HDTVRip.Rus.Eng.AlexFilm.avi
Format : AVI
Format/Info : Audio Video Interleave
File size : 699 MiB
Duration : 58 min 21 s
Overall bit rate : 1 673 kb/s
Movie name : Peaky Blinders 4x01 @ AlexFilm
Writing application : VirtualDubMod 1.5.10.2 (build 2540/release)
Writing library : VirtualDubMod build 2540/release

Video
ID : 0
Format : MPEG-4 Visual
Format profile : Advanced Simple@L5
Format settings, BVOP : No
Format settings, QPel : No
Format settings, GMC : No warppoints
Format settings, Matrix : Default (MPEG)
Codec ID : XVID
Codec ID/Hint : XviD
Duration : 58 min 21 s
Bit rate : 1 403 kb/s
Width : 720 pixels
Height : 384 pixels
Display aspect ratio : 1.85:1
Frame rate : 25.000 FPS
Color space : YUV
Chroma subsampling : 4:2:0
Bit depth : 8 bits
Scan type : Progressive
Compression mode : Lossy
Bits/(Pixel*Frame) : 0.203
Stream size : 586 MiB (84%)
Writing library : XviD 73

Audio #1
ID : 1
Format : MPEG Audio
Format version : Version 1
Format profile : Layer 3
Format settings : Joint stereo / MS Stereo
Mode : Joint stereo
Mode extension : MS Stereo
Codec ID : 55
Codec ID/Hint : MP3
Duration : 58 min 21 s
Bit rate mode : Constant
Bit rate : 128 kb/s
Channel(s) : 2 channels
Sampling rate : 48.0 kHz
Compression mode : Lossy
Stream size : 53.4 MiB (8%)
Alignment : Aligned on interleaves
Interleave, duration : 40 ms (1.00 video frame)
Interleave, preload duratio : 504 ms
Title : Russian (AlexFilm)
Writing library : LAME3.99r
Encoding settings : -m j -V 4 -q 3 -lowpass 18 -b 128

Audio #2
ID : 2
Format : MPEG Audio
Format version : Version 1
Format profile : Layer 3
Format settings : Joint stereo / MS Stereo
Mode : Joint stereo
Mode extension : MS Stereo
Codec ID : 55
Codec ID/Hint : MP3
Duration : 58 min 21 s
Bit rate mode : Constant
Bit rate : 128 kb/s
Channel(s) : 2 channels
Sampling rate : 48.0 kHz
Compression mode : Lossy
Stream size : 53.4 MiB (8%)
Alignment : Aligned on interleaves
Interleave, duration : 40 ms (1.00 video frame)
Interleave, preload duratio : 504 ms
Title : English
Writing library : LAME3.90.3
Внимание! Раздача ведётся путём добавления новых серий; при каждом добавлении создаётся новый торрент. Чтобы начать докачку новой серии, пользователям необходимо сделать следующее:
(1) остановить скачивание,
(2) удалить старый торрент у себя из клиента (старые серии удалять не надо),
(3) скачать новый торрент и запустить его у себя в клиенте вместо старого, при этом указать клиенту путь в старую папку куда и должно происходить скачивание новых серий.
Ваш клиент при этом должен произвести хеширование (проверку) старой папки (если не производит сам - помогите ему сделать это), и будет докачивать только те серии которых у вас ещё нет. Старые серии при этом не удаляются, а продолжают раздаваться!
Eсли вы уже удалили старые серии, то предотвратить повторную закачку старых серий можно, отжав галочку в соответствующих местах при запуске нового торрента. По возможности, желательно не удалять старые серии как можно дольше чтобы релизёр не столько продолжал раздавать старые серии, а смог сконцентрироваться на новых.




Скачать Острые.козырьки.Peaky.Blinders.(Сезон.04.серии.01-04.из.06).[2017.драма.криминал.HDTVRip].[MVO].(AlexFilm).torrent без регистрации
Золото ЗОЛОТАЯ РАЗДАЧА! СКАЧАННОЕ НЕ ЗАСЧИТЫВАЕТСЯ! Золото
Дата: Зарегистрирован   [ Тип: внешний ] Как тут cкачать?
MAGNET ссылка
MAGNET ссылка


Скачать .torrent

15 KB

Статус: проверено DHT
Скачан: торрент - 26 раз, раздача полностью - 1 раз
Размер: 2,74 GB
Оценка:  - (Голосов: 0)
Поблагодарили: 0
Поделиться ссылкой на эту раздачу с друзьями:
В контактеFacebookОдноклассникиTwitterLivejournalМой МирLiveinternet
 

 
Показать сообщения:    


Вы не можете начинать темы
Вы не можете отвечать на сообщения
Вы не можете редактировать свои сообщения
Вы не можете удалять свои сообщения
Вы не можете голосовать в опросах
Вы не можете прикреплять файлы к сообщениям
Вы можете скачивать файлы