Loading...
Error

Скачать Ходячие мертвецы / The Walking Dead (Сезон 8, Серии 1-7 из 16) (Эрнест Р. Дикерсон, Гай Ферленд) [2017, Ужасы, триллер, фантастика, WEB-DLRip-HEVC] [1080p] [LostFilm , FOX , BaibaKo , NewStudio , Jaskier , Uateam , English]+[Sub Eng] торрент без регистрации

Статистика раздачи
Размер:  27,66 GB   |    Скачан:  48 раз
Сидов:  3  [  0 KB/s  ]  
 
 
 
Автор Сообщение

Nikolai.Baranov

[] 



Ходячие мертвецы / The Walking Dead Сезон 8 , Серии 1-7 из 16




Год выпуска: 2017
Выпущено: США ,AMC Studios, Circle of Confusion, Darkwoods Productions, Valhalla Motion Pictures
Жанр: Ужасы, триллер, фантастика, экшен, зомби,апокалипсис
Продолжительность: 00:45:00
Автор идеи: Эрнест Р. Дикерсон, Гвинет Хордер-Пэйтон
Сезон: 8
Серия: 1-7
Количество серий в сезоне: 16

Озвучка 1: Профессиональный многоголосый -LostFilm

Озвучка 2: Профессиональный многоголосый -FOX

Озвучка 3: Профессиональный многоголосый - BaibaKo

Озвучка 4: Профессиональный многоголосый - NewStudio

Озвучка 5: Профессиональный многоголосый - Jaskier

Озвучка 6: Профессиональный многоголосый Украинский- Uateam

Озвучка 7: Профессиональный многоголосый Английский-English- оригинал

Субтитры: :Английские

Сайт сериала:



Режиссер: Эрнест Р. Дикерсон, Гай Ферленд, Гвинет Хордер-Пэйтон, Майкл Словис

Сценаристы:
Чарли Адлард, Фрэнк Дарабонт, Скотт М. Гимпл, Тони Мур, Роберт Киркман, Глен Mаззара, Анджела Кенг.

В ролях: Эндрю Линкольн, Норман Ридус, Стивен Юн, Лорен Коэн, Чендлер Риггз, Данай Джекесай Гурира, Мелисса Сюзанн МакБрайд, Майкл Кадлитц, Ленни Джеймс, Сонеква Мартин, Джош МакДермитт, Кристиан Серратос, Аланна Мастерсон, Том Пэйн, Сет Гиллиам, Александра Брекенридж, Това Фелдшух


После страшной болезни, превратившей жителей Земли в зомби, небольшая группа пока еще живых людей изо дня в день борется за выживание в новом, враждебном мире. Под предводительством бывшего полицейского Рика они ищут безопасное для жизни место, но зомби — это не самое страшное, что их ждет, основная опасность — это жестокое внутреннее соперничество среди выживших.
Сюжет:
Планету Земля настиг зомби-апокалипсис. Еще вчера все люди наслаждались жизнью, ходили в кино, по магазинам, проводили время с семьей и детьми. Никто и не предполагал, что все это может исчезнуть в один миг. Чувство безопасности потеряно человечеством, наблюдая, как ежедневно гибнут люди. Единственная цель всех людей – это выжить и не дать обратившимся себя укусить. Сериал рассказывает о жизни Рика Граймса, его семьи и друзей. Своей храбростью и умением руководить он должен сохранять людям жизни, принимать трудные решения. Что бы ни случилось, все стараются жить дальше. Но жить становится все труднее, люди скитаются в поисках жилища. Удастся ли Рику Граймсу и его команде выжить?




Качество :WEB-DLRip 1080p
Формат: MKV
Видео кодек: H265 HEVC
Видео: 9448Kбит/сек,1920х1080(16.9),в 23.976кадр/сек, HEVC(Main@L4@Main)

Аудио Кодек:AC3

Аудио #1:AC3 , 640 Kbps, 48.0 KHz, 6 ch- -LostFilm -Русский
Аудио #2: AC3, 384Kbps, 48.0 KHz, 6 ch - -FOX -Русский
Аудио #3: AC3, 384 Kbps, 48.0 KHz, 6 ch - - BaibaKo -Русский
Аудио #4: AC3, 384 Kbps, 48.0 KHz, 6 ch - - NewStudio -Русский
Аудио #5: AC3, 384 Kbps, 48.0 KHz, 6 ch - - Jaskier -Русский
Аудио #6: AC3, 384 Kbps, 48.0 KHz, 6 ch Украинский- - Uateam
Аудио #7: AC3, 640Kbps, 48.0 KHz,6 ch - - English - Оригинал



Ходячие мертвецы / The Walking Dead (Сезон 7, Серии 1-16 из 16) (Фрэнк Дарабонт, Эрнест Р. Дикерсон) [2016-2017, Ужасы, триллер, фантастика, WEB-DLRip 1080p] [LostFilm , FOX , BaibaKo , HamsterStudio , Jaskier , Uateam , English]+[Sub Rus, Eng]


Звуковая дорожка сделана путем наложения чистого голоса озвучивателей на центральный канал оригинальной дорожки. Качество идентично звуковой дорожке.




8 сезон 1 серия - Милосердие - Mercy
8 сезон 2 серия - Проклятые - The Damned
8 сезон 3 серия - Монстры - Monsters
8 сезон 4 серия - Обычный парень - Some Guy
8 сезон 5 серия - Большой и страшный ты - The Big Scary U
8 сезон 6 серия - Король, вдова и Рик - The King, The Widow and Rick
8 сезон 7 серия - "После" настало - Time for After



Общее
Уникальный идентификатор : 226208619138273874563556432539439177036 (0xAA2E3200FED3EC40BFFB3EFBFEE99D4C)
Полное имя : E:\ПИРАТИЯ(PIRATIYA)\ХОДЯЧИЕ МЕРТВЕЦЫ(The Walking Dead)\THE_WALKING_DEAD_S08_Rus_Ukr_Eng[LostFilm_FOX_ BaibaKo_NewStudio_Jaskier_Uateam]_HEVC_N.B_HD_1080\The_Walking_Dead_S08E01_5xRus_Ukr_Eng_HEVC_DD5.1_N.B_HD_1080p.mkv
Формат : Matroska
Версия формата : Version 4 / Version 2
Размер файла : 4,17 Гбайт
Продолжительность : 47 м. 14 с.
Общий поток : 12,7 Мбит/сек
Название фильма : The Walking Dead S08E01 @ Nikolai.Baranov & PIRATIYA
Дата кодирования : UTC 2017-11-08 20:00:22
Программа кодирования : mkvmerge v17.0.0 ('Be Ur Friend') 64-bit
Библиотека кодирования : libebml v1.3.5 + libmatroska v1.4.8

Видео
Идентификатор : 1
Формат : HEVC
Формат/Информация : High Efficiency Video Coding
Профиль формата : Main@L4@Main
Идентификатор кодека : V_MPEGH/ISO/HEVC
Продолжительность : 47 м. 14 с.
Битрейт : 9448 Кбит/сек
Ширина : 1920 пикселей
Высота : 1080 пикселей
Соотношение сторон : 16:9
Режим частоты кадров : Постоянный
Частота кадров : 23,976 (24000/1001) кадра/сек
Цветовое пространство : YUV
Субдискретизация насыщенности : 4:2:0
Битовая глубина : 8 бит
Бит/(Пиксели*Кадры) : 0.190
Размер потока : 3,12 Гбайт (75%)
Заголовок : The_Walking_Dead_S08E01_5xRus_Ukr_Eng_HEVC_DD5.1_N.B_HD_1080p
Язык : Russian
Default : Да
Forced : Нет
Цветовой диапазон : Full

Аудио #1
Идентификатор : 4
Формат : AC-3
Формат/Информация : Audio Coding 3
Идентификатор кодека : A_AC3
Продолжительность : 47 м. 14 с.
Вид битрейта : Постоянный
Битрейт : 640 Кбит/сек
Каналы : 6 каналов
Расположение каналов : Front: L C R, Side: L R, LFE
Частота : 48,0 КГц
Частота кадров : 31,250 кадров/сек (1536 SPF)
Битовая глубина : 16 бит
Метод сжатия : С потерями
Размер потока : 216 Мбайт (5%)
Заголовок : MVO LostFilm @DD5.1 AC3, 640 Kbps, 48.0 KHz, 6 ch
Язык : Russian
ServiceKind/String : Complete Main
Default : Да
Forced : Нет

Аудио #2
Идентификатор : 5
Формат : AC-3
Формат/Информация : Audio Coding 3
Идентификатор кодека : A_AC3
Продолжительность : 47 м. 14 с.
Вид битрейта : Постоянный
Битрейт : 384 Кбит/сек
Каналы : 6 каналов
Расположение каналов : Front: L C R, Side: L R, LFE
Частота : 48,0 КГц
Частота кадров : 31,250 кадров/сек (1536 SPF)
Битовая глубина : 16 бит
Метод сжатия : С потерями
Размер потока : 130 Мбайт (3%)
Заголовок : MVO FOX @DD5.1 AC3, 384 Kbps, 48.0 KHz, 6 ch
Язык : Russian
ServiceKind/String : Complete Main
Default : Нет
Forced : Нет

Аудио #3
Идентификатор : 6
Формат : AC-3
Формат/Информация : Audio Coding 3
Идентификатор кодека : A_AC3
Продолжительность : 47 м. 14 с.
Вид битрейта : Постоянный
Битрейт : 384 Кбит/сек
Каналы : 6 каналов
Расположение каналов : Front: L C R, Side: L R, LFE
Частота : 48,0 КГц
Частота кадров : 31,250 кадров/сек (1536 SPF)
Битовая глубина : 16 бит
Метод сжатия : С потерями
Размер потока : 130 Мбайт (3%)
Заголовок : MVO BaibaKo @DD5.1 AC3, 384 Kbps, 48.0 KHz, 6 ch
Язык : Russian
ServiceKind/String : Complete Main
Default : Нет
Forced : Нет

Аудио #4
Идентификатор : 7
Формат : AC-3
Формат/Информация : Audio Coding 3
Идентификатор кодека : A_AC3
Продолжительность : 47 м. 14 с.
Вид битрейта : Постоянный
Битрейт : 384 Кбит/сек
Каналы : 6 каналов
Расположение каналов : Front: L C R, Side: L R, LFE
Частота : 48,0 КГц
Частота кадров : 31,250 кадров/сек (1536 SPF)
Битовая глубина : 16 бит
Метод сжатия : С потерями
Размер потока : 130 Мбайт (3%)
Заголовок : MVO NewStudio @DD5.1 AC3, 384 Kbps, 48.0 KHz, 6 ch
Язык : Russian
ServiceKind/String : Complete Main
Default : Нет
Forced : Нет

Аудио #5
Идентификатор : 8
Формат : AC-3
Формат/Информация : Audio Coding 3
Идентификатор кодека : A_AC3
Продолжительность : 47 м. 14 с.
Вид битрейта : Постоянный
Битрейт : 384 Кбит/сек
Каналы : 6 каналов
Расположение каналов : Front: L C R, Side: L R, LFE
Частота : 48,0 КГц
Частота кадров : 31,250 кадров/сек (1536 SPF)
Битовая глубина : 16 бит
Метод сжатия : С потерями
Размер потока : 130 Мбайт (3%)
Заголовок : MVO Jaskier @DD5.1 AC3, 384 Kbps, 48.0 KHz, 6 ch
Язык : Russian
ServiceKind/String : Complete Main
Default : Нет
Forced : Нет

Аудио #6
Идентификатор : 9
Формат : AC-3
Формат/Информация : Audio Coding 3
Идентификатор кодека : A_AC3
Продолжительность : 47 м. 14 с.
Вид битрейта : Постоянный
Битрейт : 384 Кбит/сек
Каналы : 6 каналов
Расположение каналов : Front: L C R, Side: L R, LFE
Частота : 48,0 КГц
Частота кадров : 31,250 кадров/сек (1536 SPF)
Битовая глубина : 16 бит
Метод сжатия : С потерями
Размер потока : 130 Мбайт (3%)
Заголовок : MVO Uateam @DD5.1 AC3, 384 Kbps, 48.0 KHz, 6 ch
Язык : Ukrainian
ServiceKind/String : Complete Main
Default : Нет
Forced : Нет

Аудио #7
Идентификатор : 10
Формат : AC-3
Формат/Информация : Audio Coding 3
Идентификатор кодека : A_AC3
Продолжительность : 47 м. 14 с.
Вид битрейта : Постоянный
Битрейт : 640 Кбит/сек
Каналы : 6 каналов
Расположение каналов : Front: L C R, Side: L R, LFE
Частота : 48,0 КГц
Частота кадров : 31,250 кадров/сек (1536 SPF)
Битовая глубина : 16 бит
Метод сжатия : С потерями
Размер потока : 216 Мбайт (5%)
Заголовок : Original@DD5.1 AC3 ,640 Kbps, 48.0 KHz, 6 ch
Язык : English
ServiceKind/String : Complete Main
Default : Нет
Forced : Нет

Текст #1
Идентификатор : 2
Формат : UTF-8
Идентификатор кодека : S_TEXT/UTF8
Идентификатор кодека/Информация : UTF-8 Plain Text
Продолжительность : 44 м. 57 с.
Битрейт : 26 бит/сек
ElementCount : 350
Размер потока : 8,70 Кбайт (0%)
Заголовок : Original
Язык : English
Default : Да
Forced : Нет

Текст #2
Идентификатор : 3
Формат : UTF-8
Идентификатор кодека : S_TEXT/UTF8
Идентификатор кодека/Информация : UTF-8 Plain Text
Продолжительность : 47 м. 6 с.
Битрейт : 39 бит/сек
ElementCount : 730
Размер потока : 13,6 Кбайт (0%)
Заголовок : SDH
Язык : English
Default : Нет
Forced : Нет

Меню
00:00:00.000 : en:Глава 01 / en:Глава 01 / en:Глава 01 / en:Глава 01 / en:Глава 01 / en:Глава 01 / en:Глава 01 / en:Глава 01 / en:Глава 01 / en:Глава 01






Внимание! Раздача пополняется по мере выхода новых серий!



Раздача ведётся путём добавления новых серий; при каждом добавлении создётся новый торрент.
Чтобы начать докачку новой серии, пользователям необходимо сделать следующее:
1. остановить скачивание,
2. удалить старый торрент у себя из клиента (старые серии удалять не надо),
3. скачать новый торрент и запустить его у себя в клиенте вместо старого, при этом указать клиенту путь в старую папку, куда и должно происходить скачивание новых серий.

Ваш клиент при этом должен произвести хеширование (проверку) старой папки (если не производит сам - помогите ему сделать это), и будет докачивать только те серии которых у вас ещё нет. Старые серии при этом не удаляются, а продолжают раздаваться!

Eсли вы уже удалили старые серии, то предотвратить повторную закачку старых серий можно, отжав галочку в соответсвующих местах при запуске нового торрента. По возможности, желательно не удалять старые серии как можно дольше, чтобы релизёр не столько продолжал раздавать старые серии, а смог сконцентрироваться на новых.

Совет для тех, кто не хочет ждать перехеширования:
Создайте ещё одну папку рядом с папкой сериала (рядом, а не в ней!!!). Каждую новую серию после удачной загрузки копируйте в новую папку так чтобы ваша основная папка всегда была пуста. Когда ваш новый торрент предложит вам закачать все файлы, выберете только последнюю. Для сидирования же укажите адрес новой папки.

Как закачать отдельный файл из торрента или докачать ранее пропущенные файлы торрента!

1. Открыть торрент
2. Снять галки с тех файлов торрента, которые мы не хотим закачивать. Оставляем только на нужных нам файлах (файле).
3. Нажать О.К.

В клиенте utorrent

Инструкция

1) Открыть торрент


2) Снять галки с тех файлов торрента, которые мы не хотим закачивать:

* либо вручную, снимая с каждого файла галку( скрин №1)
* либо, нажав кнопку "Снять метки (Select None)", сняв сразу со всех файлов(скрин №2)
№1

№2

Оставляем только на нужных нам файлах (файле).

3)Нажать О.К






Внимание!!! 06.11. 2017. РАЗДАЧА ОБНОВЛЕНА. ДОБАВЛЕНА 7 СЕРИЯ. ОБНОВИТЕ ТОРЕНТ ФАЙЛ. ПРИЯТНОГО ПРОСМОТРА .

Релиз от: Nikolai.Baranov & PIRATIYA










Скачать Ходячие.мертвецы.The.Walking.Dead.(Сезон.8.Серии.1-7.из.16).(Эрнест.Р.Дикерсон.Гай.Ферленд).[2017.Ужасы.триллер.фантастика.WEB-DLRip-HEVC].[1080p].[LostFilm.FOX.BaibaKo.NewStudio.Jaskier.Uateam.English]+[Sub.Eng].torrent без регистрации
Золото ЗОЛОТАЯ РАЗДАЧА! СКАЧАННОЕ НЕ ЗАСЧИТЫВАЕТСЯ! Золото
Дата: Зарегистрирован   [ Тип: внутренний ] Как тут cкачать?
MAGNET ссылка
MAGNET ссылка


Скачать .torrent

144 KB

Статус: проверено DHT
Скачан: торрент - 48 раз, раздача полностью - 14 раз
Размер: 27,66 GB
Оценка:  - (Голосов: 0)
Поблагодарили: 0
Поделиться ссылкой на эту раздачу с друзьями:
В контактеFacebookОдноклассникиTwitterLivejournalМой МирLiveinternet
 

 
Показать сообщения:    


Вы не можете начинать темы
Вы не можете отвечать на сообщения
Вы не можете редактировать свои сообщения
Вы не можете удалять свои сообщения
Вы не можете голосовать в опросах
Вы не можете прикреплять файлы к сообщениям
Вы можете скачивать файлы