Loading...
Error

Скачать Голем / The Limehouse Golem (Хуан Карлос Медина) [2016, детектив, ужасы, триллер, BDRemux] [1080p] [Dub (лицензия iTunes)]+[MVO (AlexFilm)]+[Eng]+[Sub Eng] торрент без регистрации

Статистика раздачи
Размер:  19,03 GB   |    Скачан:  53 раза
Сидов:  1  [  0 KB/s  ]  
 
 
 
Автор Сообщение

МихаНЕзатор

[] 

Информация о фильме
Название: Голем
Оригинальное название: The Limehouse Golem
Год выхода: 2016
Жанр: Ужасы, Триллер
Режиссер: Хуан Карлос Медина

В ролях: Оливия Кук, Билл Найи, Эдди Марсан, Дуглас Бут, Мария Вальверде, Сэм Рид, Дэниэл Мейс, Адам Браун, Генри Гудман, Морган Уоткинс ...

О фильме: Викторианский Лондон, 1880 год. Опасный район города Лаймхауз потрясает серия жестоких убийств. Напуганные до смерти жители полагают, что в этих чудовищных и безжалостных преступлениях замешан не кто иной, как голем — глиняное существо из мифологии, оживляемое при помощи магии. Панический страх растет, убийства продолжаются. Полиция не знает, что делать, и в качестве козла отпущения главным в этом деле назначается опытный детектив, инспектор Килдэр.



Страна: Великобритания
Студия: Number 9 Films
Продолжительность: 01:48:37
Перевод: Дублированный (iTunes), многоголосый закадровый (AlexFilm)

Файл
Формат: MKV
Кодек: MPEG-4 AVC
Качество: BDRemux 1080р | D, P | iTunes
Видео: AVC/H.264, 1920x1080 , 24 fps, 22,7 Мbps
Звук:
Аудио »1: AC3, 6 ch, 384 Kbps - Русский (DUB)
Аудио »2: AC3, 6 ch, 384 Kbps - Русский (MVO)
Аудио »3: DTS-HD MA, 6 ch, ~1649 kbps - Английский
Субтитры: Английские (Full)

АНОНСЫ ПОПУЛЯРНЫХ РАЗДАЧ
Общее
Уникальный идентификатор : 218912194547662856777074129698894670784 (0xA4B0F47F46CF53B5A18CF4DF85706BC0)
Полное имя : The Limehouse Golem.2016.BDRemux.mkv
Формат : Matroska
Версия формата : Version 4 / Version 2
Размер файла : 19,0 Гбайт
Продолжительность : 1 ч. 48 м.
Режим общего битрейта : Переменный
Общий поток : 25,1 Мбит/сек
Название фильма : The Limehouse Golem.2016.BDRemux
Дата кодирования : UTC 2017-11-22 17:18:07
Программа кодирования : mkvmerge v17.0.0 ('Be Ur Friend') 64-bit
Библиотека кодирования : libebml v1.3.5 + libmatroska v1.4.8

Видео
Идентификатор : 1
Формат : AVC
Формат/Информация : Advanced Video Codec
Профиль формата : High@L4.1
Настройки формата : CABAC / 4 Ref Frames
Параметр CABAC формата : Да
Параметр RefFrames формата : 4 кадра
Параметр GOP формата : M=1, N=12
Идентификатор кодека : V_MPEG4/ISO/AVC
Продолжительность : 1 ч. 48 м.
Вид битрейта : Переменный
Битрейт : 22,7 Мбит/сек
Максимальный битрейт : 36,5 Мбит/сек
Ширина : 1920 пикселей
Высота : 1080 пикселей
Соотношение сторон : 16:9
Режим частоты кадров : Постоянный
Частота кадров : 24,000 кадра/сек
Цветовое пространство : YUV
Субдискретизация насыщенности : 4:2:0
Битовая глубина : 8 бит
Тип развёртки : Прогрессивная
Бит/(Пиксели*Кадры) : 0.455
Размер потока : 17,2 Гбайт (90%)
Язык : English
Default : Да
Forced : Нет

Аудио #1
Идентификатор : 2
Формат : AC-3
Формат/Информация : Audio Coding 3
Идентификатор кодека : A_AC3
Продолжительность : 1 ч. 48 м.
Вид битрейта : Постоянный
Битрейт : 384 Кбит/сек
Каналы : 6 каналов
Расположение каналов : Front: L C R, Side: L R, LFE
Частота : 48,0 КГц
Частота кадров : 31,250 кадров/сек (1536 SPF)
Битовая глубина : 16 бит
Метод сжатия : С потерями
Размер потока : 298 Мбайт (2%)
Заголовок : DUB | iTunes
Язык : Russian
ServiceKind : Complete Main
Default : Да
Forced : Нет

Аудио #2
Идентификатор : 3
Формат : AC-3
Формат/Информация : Audio Coding 3
Идентификатор кодека : A_AC3
Продолжительность : 1 ч. 48 м.
Вид битрейта : Постоянный
Битрейт : 384 Кбит/сек
Каналы : 6 каналов
Расположение каналов : Front: L C R, Side: L R, LFE
Частота : 48,0 КГц
Частота кадров : 31,250 кадров/сек (1536 SPF)
Битовая глубина : 16 бит
Метод сжатия : С потерями
Размер потока : 298 Мбайт (2%)
Заголовок : MVO (AlexFilm)
Язык : Russian
ServiceKind : Complete Main
Default : Нет
Forced : Нет

Аудио #3
Идентификатор : 4
Формат : DTS
Формат/Информация : Digital Theater Systems
Профиль формата : MA / Core
Идентификатор кодека : A_DTS
Продолжительность : 1 ч. 48 м.
Вид битрейта : Переменный / Постоянный
Битрейт : 1649 Кбит/сек / 768 Кбит/сек
Каналы : 6 каналов
Расположение каналов : Front: L C R, Side: L R, LFE
Частота : 48,0 КГц
Частота кадров : 93,750 кадра/сек (512 SPF)
Битовая глубина : 16 бит
Метод сжатия : Без потерь / Lossy
Размер потока : 1,25 Гбайт (7%)
Язык : English
Default : Нет
Forced : Нет

Текст
Идентификатор : 5
Формат : UTF-8
Идентификатор кодека : S_TEXT/UTF8
Идентификатор кодека/Информация : UTF-8 Plain Text
Продолжительность : 1 ч. 47 м.
Битрейт : 66 бит/сек
ElementCount : 1698
Размер потока : 52,7 Кбайт (0%)
Язык : English
Default : Нет
Forced : Нет

Меню
00:00:00.000 : en:00:00:00.000
00:08:02.375 : en:00:08:02.375
00:17:45.333 : en:00:17:45.333
00:24:37.958 : en:00:24:37.958
00:36:20.125 : en:00:36:20.125
00:46:17.750 : en:00:46:17.750
00:55:19.625 : en:00:55:19.625
01:07:52.333 : en:01:07:52.333
01:15:51.292 : en:01:15:51.292
01:24:56.125 : en:01:24:56.125
01:31:49.208 : en:01:31:49.208
01:38:13.208 : en:01:38:13.208



Скачать Голем.The.Limehouse.Golem.(Хуан.Карлос.Медина).[2016.детектив.ужасы.триллер.BDRemux].[1080p].[Dub.(лицензия.iTunes)]+[MVO.(AlexFilm)]+[Eng]+[Sub.Eng].torrent без регистрации
Золото ЗОЛОТАЯ РАЗДАЧА! СКАЧАННОЕ НЕ ЗАСЧИТЫВАЕТСЯ! Золото
Дата: Зарегистрирован   [ Тип: внутренний ] Как тут cкачать?
MAGNET ссылка
MAGNET ссылка


Скачать .torrent

96 KB

Статус: проверено DHT
Скачан: торрент - 53 раз, раздача полностью - 33 раз
Размер: 19,03 GB
Оценка:  - (Голосов: 0)
Поблагодарили: 1
Поделиться ссылкой на эту раздачу с друзьями:
В контактеFacebookОдноклассникиTwitterLivejournalМой МирLiveinternet
 

 
Показать сообщения:    


Вы не можете начинать темы
Вы не можете отвечать на сообщения
Вы не можете редактировать свои сообщения
Вы не можете удалять свои сообщения
Вы не можете голосовать в опросах
Вы не можете прикреплять файлы к сообщениям
Вы можете скачивать файлы