Loading...
Error

Скачать Черное Рождество / Black Christmas (Глен Морган) [2006, ужасы, триллер, HDDVDRip] [720p] [Dub]+[AVO]x2+[Оригинал Eng]+[Sub Eng] торрент без регистрации

Статистика раздачи
Размер:  4,36 GB   |    Скачан:  8 раз
Сидов:  1  [  0 KB/s  ]  
 
 
 
Автор Сообщение

Marsianka

[] 

Название: Черное Рождество
Оригинальное название: Black Christmas
Год выхода: 2006
Страна: США, Канада
Студия: Dimension Films, 2929 Productions, Adelstein-Parouse Productions
Продолжительность: 01:32:11
Жанр: ужасы, триллер

Режиссер: Глен Морган
В ролях: Кэти Кэссиди, Мишель Трахтенберг, Мэри Элизабет Уинстэд, Лейси Чаберт, Кристен Клоук, Андреа Мартин, Кристал Лоу, Оливер Хадсон, Карин Коновал, Дин Фрисс, ...

Перевод: Дублированный, авторский (одноголосый, закадровый)

О фильме: Много лет назад, будучи еще ребенком, своими собственными глазами Билли видел, как его мать жестоко убила отца. А затем заперла его, своего единственного свидетеля, на чердаке. Как собаку. На долгие годы. Но однажды Билли удалось бежать…
Канун Рождества. Школа сестер милосердия оглашается тревожными телефонными звонками. Кто-то упорно терроризирует девушек, произнося зловещим голосом страшные угрозы. И вскоре таинственным образом одна за другой погибают воспитанницы школы…



Кодек: x264
Качество: HDDVDRip 720p
Видео: AVC, 1280x544 (2.35:1), 23.976 fps, 4 612 Kbps (0.276 bit/pixel)
Аудио #1: AC-3, 48.0 KHz, 6 ch, 448 Kbps, CBR (Russian) - Дубляж Невафильм + Дольский
Аудио #2: AC-3, 48.0 KHz, 6 ch, 640 Kbps, CBR (Russian) - авторский А.Матвеев (Doctor Joker)
Аудио #3: AC-3, 48.0 KHz, 6 ch, 640 Kbps, CBR (Russian) - авторский А.Дольский
Аудио #4: AC-3, 48.0 KHz, 6 ch, 448 Kbps, CBR (English) - оригинальная звуковая дорожка
Субтитры: Английские
Полное имя : D:ФИЛЬМЫЧерное Рождество. 2006 (К.Кэссиди, М.Э.Уинстэд) Unrated.mkv
Формат : Matroska
Версия формата : Version 2
Размер файла : 4,36 Гбайт
Продолжительность : 1 ч. 32 м.
Общий поток : 6778 Кбит/сек
Дата кодирования : UTC 2017-11-20 18:25:05
Программа кодирования : mkvmerge v5.3.0 ('I could have danced') built on Feb 9 2012 10:38:07
Библиотека кодирования : libebml v1.2.3 + libmatroska v1.3.0
Attachments : poster.png

Видео
Идентификатор : 1
Формат : AVC
Формат/Информация : Advanced Video Codec
Профиль формата : High@L4.1
Параметр CABAC формата : Да
Параметр ReFrames формата : 12 кадров
Идентификатор кодека : V_MPEG4/ISO/AVC
Продолжительность : 1 ч. 32 м.
Битрейт : 4612 Кбит/сек
Ширина : 1280 пикселей
Высота : 544 пикселя
Соотношение сторон : 2,35:1
Режим частоты кадров : Постоянный
Частота кадров : 23,976 (24000/1001) кадра/сек
Цветовое пространство : YUV
Субдискретизация насыщенности : 4:2:0
Битовая глубина : 8 бит
Тип развёртки : Прогрессивная
Бит/(Пиксели*Кадры) : 0.276
Размер потока : 2,88 Гбайт (66%)
Библиотека кодирования : x264 core 146 r2538 121396c
Настройки программы : cabac=1 / ref=12 / deblock=1:-3:-3 / analyse=0x3:0x133 / me=umh / subme=11 / psy=1 / psy_rd=1.00:0.05 / mixed_ref=1 / me_range=32 / chroma_me=1 / trellis=2 / 8x8dct=1 / cqm=0 / deadzone=21,11 / fast_pskip=0 / chroma_qp_offset=-3 / threads=12 / lookahead_threads=3 / sliced_threads=0 / nr=0 / decimate=0 / interlaced=0 / bluray_compat=0 / constrained_intra=0 / bframes=11 / b_pyramid=2 / b_adapt=2 / b_bias=0 / direct=3 / weightb=1 / open_gop=0 / weightp=2 / keyint=240 / keyint_min=23 / scenecut=40 / intra_refresh=0 / rc=2pass / mbtree=0 / bitrate=4612 / ratetol=1.0 / qcomp=0.60 / qpmin=0 / qpmax=69 / qpstep=4 / cplxblur=20.0 / qblur=0.5 / ip_ratio=1.40 / pb_ratio=1.30 / aq=3:0.90
Язык : English
Default : Да
Forced : Нет

Аудио #1
Идентификатор : 2
Формат : AC-3
Формат/Информация : Audio Coding 3
Расширение режима : CM (complete main)
Параметр Endianness формата : Big
Идентификатор кодека : A_AC3
Продолжительность : 1 ч. 32 м.
Вид битрейта : Постоянный
Битрейт : 448 Кбит/сек
Каналы : 6 каналов
Расположение каналов : Front: L C R, Side: L R, LFE
Частота : 48,0 КГц
Частота кадров : 31,250 кадров/сек (1536 spf)
Битовая глубина : 16 бит
Метод сжатия : С потерями
Размер потока : 295 Мбайт (7%)
Заголовок : Dub Невафильм (Дольский на расширенные места)
Язык : Russian
Default : Нет
Forced : Нет

Аудио #2
Идентификатор : 3
Формат : AC-3
Формат/Информация : Audio Coding 3
Расширение режима : CM (complete main)
Параметр Endianness формата : Big
Идентификатор кодека : A_AC3
Продолжительность : 1 ч. 32 м.
Вид битрейта : Постоянный
Битрейт : 640 Кбит/сек
Каналы : 6 каналов
Расположение каналов : Front: L C R, Side: L R, LFE
Частота : 48,0 КГц
Частота кадров : 31,250 кадров/сек (1536 spf)
Битовая глубина : 16 бит
Метод сжатия : С потерями
Размер потока : 422 Мбайт (9%)
Заголовок : AVO Матвеев Алексей (Doctor Joker)
Язык : Russian
Default : Нет
Forced : Нет

Аудио #3
Идентификатор : 4
Формат : AC-3
Формат/Информация : Audio Coding 3
Расширение режима : CM (complete main)
Параметр Endianness формата : Big
Идентификатор кодека : A_AC3
Продолжительность : 1 ч. 32 м.
Вид битрейта : Постоянный
Битрейт : 640 Кбит/сек
Каналы : 6 каналов
Расположение каналов : Front: L C R, Side: L R, LFE
Частота : 48,0 КГц
Частота кадров : 31,250 кадров/сек (1536 spf)
Битовая глубина : 16 бит
Метод сжатия : С потерями
Размер потока : 422 Мбайт (9%)
Заголовок : AVO Дольский Андрей Игоревич
Язык : Russian
Default : Нет
Forced : Нет

Аудио #4
Идентификатор : 5
Формат : AC-3
Формат/Информация : Audio Coding 3
Расширение режима : CM (complete main)
Параметр Endianness формата : Big
Идентификатор кодека : A_AC3
Продолжительность : 1 ч. 32 м.
Вид битрейта : Постоянный
Битрейт : 448 Кбит/сек
Каналы : 6 каналов
Расположение каналов : Front: L C R, Side: L R, LFE
Частота : 48,0 КГц
Частота кадров : 31,250 кадров/сек (1536 spf)
Битовая глубина : 16 бит
Метод сжатия : С потерями
Размер потока : 295 Мбайт (7%)
Язык : English
Default : Нет
Forced : Нет

Текст
Идентификатор : 6
Формат : UTF-8
Идентификатор кодека : S_TEXT/UTF8
Идентификатор кодека/Информация : UTF-8 Plain Text
Язык : English
Default : Нет
Forced : Нет

Меню
00:00:00.000 : en:Chapter 01
00:05:18.568 : en:Chapter 02
00:15:16.949 : en:Chapter 03
00:22:01.570 : en:Chapter 04
00:28:06.217 : en:Chapter 05
00:37:53.805 : en:Chapter 06
00:43:05.366 : en:Chapter 07
00:52:02.870 : en:Chapter 08
00:57:53.420 : en:Chapter 09
01:03:28.755 : en:Chapter 10
01:14:17.153 : en:Chapter 11
01:22:57.973 : en:Chapter 12
Релиз от:



Скачать Черное.Рождество.Black.Christmas.(Глен.Морган).[2006.ужасы.триллер.HDDVDRip].[720p].[Dub]+[AVO]x2+[Оригинал.Eng]+[Sub.Eng].torrent без регистрации
Золото ЗОЛОТАЯ РАЗДАЧА! СКАЧАННОЕ НЕ ЗАСЧИТЫВАЕТСЯ! Золото
Дата: Зарегистрирован   [ Тип: внутренний ] Как тут cкачать?
MAGNET ссылка
MAGNET ссылка


Скачать .torrent

12 KB

Статус: проверено DHT
Скачан: торрент - 8 раз, раздача полностью - 0 раз
Размер: 4,36 GB
Оценка:  - (Голосов: 0)
Поблагодарили: 0
Поделиться ссылкой на эту раздачу с друзьями:
В контактеFacebookОдноклассникиTwitterLivejournalМой МирLiveinternet
 

 
Показать сообщения:    


Вы не можете начинать темы
Вы не можете отвечать на сообщения
Вы не можете редактировать свои сообщения
Вы не можете удалять свои сообщения
Вы не можете голосовать в опросах
Вы не можете прикреплять файлы к сообщениям
Вы можете скачивать файлы