Loading...
Error

Скачать Мое лето любви / My Summer of Love (Павел Павликовский) [2004, драма, мелодрама, WEB-DL] [1080p] [DVO]+[Оригинал Eng]+[Sub Eng] торрент без регистрации

Статистика раздачи
Размер:  8,21 GB   |    Скачан:  9 раз
Сидов:  1  [  0 KB/s  ]  
 
 
 
Автор Сообщение

Marsianka

[] 

Информация о фильме
Название: Мое лето любви
Оригинальное название: My Summer of Love
Год выхода: 2004
Жанр: драма, мелодрама,
Режиссер: Павел Павликовский
В ролях: Натали Пресс, Эмили Блант, Пэдди Консидайн, Дин Эндрюс, Мишель Бирн, Пол Энтони-Барбер, Линетт Эдвардс, Кэтрин Самнер

О фильме:
Однажды летом Мона, только что порвавшая со своим парнем, знакомится с Тамсин, приехавшей в провинцию на каникулы. Две противоположности находят в каждой нечто, что неожиданно сближает их. Они проводят вместе страстные, забавные, незабываемые дни! Но могут ли подруги полностью довериться друг другу?



Страна: Великобритания
Студия: Apocalypso Pictures, Baker Street, BBC Films, Take Partnership, The Film Consortium, UK Film Council
Продолжительность: 01:26:46
Перевод: Профессиональный, двухголосый

Файл
Кодек: MPEG-4 AVC
Качество: WEB-DL 1080p
Видео: 1920x1040, 12300kb/s,23.976fps

1] 384kb/s, 6ch, 48000kHz, AC3 [RUS] ~ Профессиональный, двухголосый
2] 640kb/s, 6ch, 48000kHz, AC3 [ENG] ~ Оригинал
Субтитры: Английские

Формат : Matroska
Версия формата : Version 4 / Version 2
Размер файла : 8,21 Гбайт
Продолжительность : 1 ч. 26 м.
Режим общего битрейта : Переменный
Общий поток : 13,6 Мбит/сек
Дата кодирования : UTC 2017-11-24 12:31:26
Программа кодирования : mkvmerge v17.0.0 ('Be Ur Friend') 64-bit
Библиотека кодирования : libebml v1.3.5 + libmatroska v1.4.8

Видео
Идентификатор : 1
Формат : AVC
Формат/Информация : Advanced Video Codec
Профиль формата : High@L4
Настройки формата : CABAC / 4 Ref Frames
Параметр CABAC формата : Да
Параметр RefFrames формата : 4 кадра
Идентификатор кодека : V_MPEG4/ISO/AVC
Продолжительность : 1 ч. 26 м.
Вид битрейта : Переменный
Битрейт : 12,3 Мбит/сек
Максимальный битрейт : 15,0 Мбит/сек
Ширина : 1920 пикселей
Высота : 1040 пикселей
Соотношение сторон : 1,85:1
Режим частоты кадров : Постоянный
Частота кадров : 23,976 (24000/1001) кадра/сек
Цветовое пространство : YUV
Субдискретизация насыщенности : 4:2:0
Битовая глубина : 8 бит
Тип развёртки : Прогрессивная
Бит/(Пиксели*Кадры) : 0.256
Размер потока : 7,43 Гбайт (90%)
Заголовок : Mastered by whip93
Язык : English
Default : Да
Forced : Нет
Цветовой диапазон : Limited
Основные цвета : BT.709
Характеристики трансфера : BT.709
Коэффициенты матрицы : BT.709

Аудио #1
Идентификатор : 2
Формат : AC-3
Формат/Информация : Audio Coding 3
Параметр Endianness формата : Big
Идентификатор кодека : A_AC3
Продолжительность : 1 ч. 26 м.
Вид битрейта : Постоянный
Битрейт : 384 Кбит/сек
Каналы : 6 каналов
Расположение каналов : Front: L C R, Side: L R, LFE
Частота : 48,0 КГц
Частота кадров : 31,250 кадров/сек (1536 SPF)
Битовая глубина : 16 бит
Метод сжатия : С потерями
Размер потока : 238 Мбайт (3%)
Заголовок : DVO (R5)
Язык : Russian
Default : Да
Forced : Нет

Аудио #2
Идентификатор : 3
Формат : E-AC-3
Формат/Информация : Enhanced Audio Coding 3
Параметр Endianness формата : Big
Идентификатор кодека : A_EAC3
Продолжительность : 1 ч. 26 м.
Вид битрейта : Постоянный
Битрейт : 640 Кбит/сек
Каналы : 6 каналов
Расположение каналов : Front: L C R, Side: L R, LFE
Частота : 48,0 КГц
Частота кадров : 187,500 кадров/сек (256 SPF)
Метод сжатия : С потерями
Задержка видео : 11 мс.
Размер потока : 397 Мбайт (5%)
Заголовок : Original
Язык : English
Default : Нет
Forced : Нет

Текст
Идентификатор : 4
Формат : UTF-8
Идентификатор кодека : S_TEXT/UTF8
Идентификатор кодека/Информация : UTF-8 Plain Text
Заголовок : Original (SDH)
Язык : English
Default : Нет
Forced : Нет

Меню
00:00:00.000 : en:Main Titles
00:01:46.231 : en:Meeting Mona Lisa
00:04:48.748 : en:Spiritual Fulfilment
00:09:09.841 : en:"The Swan"
00:14:17.815 : en:Philosophical Views
00:16:37.266 : en:A Different Brother
00:20:44.493 : en:Alarming Distraction
00:24:47.820 : en:Crimes of Passion
00:28:56.693 : en:Up and Running
00:35:03.142 : en:Emotional Outpour
00:37:14.862 : en:Caught in the Moment
00:42:53.863 : en:Cruel Joke
00:47:18.752 : en:Reclaiming the Valley
00:52:43.535 : en:Communing
01:02:10.768 : en:Feeling God
01:09:29.499 : en:Evil Doings
01:16:29.251 : en:Playing a Part
01:24:07.584 : en:End Titles



Скачать Мое.лето.любви.My.Summer.of.Love.(Павел.Павликовский).[2004.драма.мелодрама.WEB-DL].[1080p].[DVO]+[Оригинал.Eng]+[Sub.Eng].torrent без регистрации
Золото ЗОЛОТАЯ РАЗДАЧА! СКАЧАННОЕ НЕ ЗАСЧИТЫВАЕТСЯ! Золото
Дата: Зарегистрирован   [ Тип: внутренний ] Как тут cкачать?
MAGNET ссылка
MAGNET ссылка


Скачать .torrent

22 KB

Статус: проверено DHT
Скачан: торрент - 9 раз, раздача полностью - 0 раз
Размер: 8,21 GB
Оценка:  - (Голосов: 0)
Поблагодарили: 0
Поделиться ссылкой на эту раздачу с друзьями:
В контактеFacebookОдноклассникиTwitterLivejournalМой МирLiveinternet
 

 
Показать сообщения:    


Вы не можете начинать темы
Вы не можете отвечать на сообщения
Вы не можете редактировать свои сообщения
Вы не можете удалять свои сообщения
Вы не можете голосовать в опросах
Вы не можете прикреплять файлы к сообщениям
Вы можете скачивать файлы