Loading...
Error

Скачать Враг у ворот / Enemy at the Gates (Жан-Жак Анно) [2001, триллер, драма, военный, история, HDDVDRip] [720p] [Open Matte] [MVO]+[Eng]+[Sub Rus, Eng]x2 торрент без регистрации

Статистика раздачи
Размер:  4,35 GB   |    Скачан:  18 раз
Сидов:  1  [  0 KB/s  ]  
 
 
 
Автор Сообщение

Marsianka

[] 



Информация о фильме
Название: Враг у ворот
Оригинальное название: Enemy at the Gates
Год выхода: 2001
Жанр: триллер, драма, военный, история
Режиссер: Жан-Жак Анно
В ролях: Джуд Лоу, Эд Харрис, Рейчел Вайс, Джозеф Файнс, Боб Хоскинс, Рон Перлман, Ева Маттес, Гэбриел Томсон, Маттиас Хабих, Софи Роиз

О фильме:
1942 год, разгар Сталинградской битвы. Немецкое командование направляет на передовую своего лучшего стрелка, майора Кенига, с особым заданием. Этот опытный и терпеливый профессионал — единственный, кто может попытаться справиться с русским «ангелом смерти» — неуловимым снайпером Василием Зайцевым.

Зайцев — легенда и икона для защитников Сталинграда. Каждый день он выносит смертный приговор десяткам захватчиков, попавших в перекрестье его прицела. Между двумя уникальными снайперами начинается смертельная схватка, победителем из которой будет суждено выйти лишь одному…



Выпущено: Paramount Pictures
Продолжительность: 02:10:54
Перевод: Профессиональный (многоголосый, закадровый)

Файл
Кодек: x264
Качество: HDDVDRip 720p (источник: Enemy at the Gates (2001) HD-DVD Remux 1080p)
Видео: 1280x720 (16:9), 23.976 fps, ~3862 kbps
Аудио #1: AC-3, 6 ch, 448 kbps (Многоголосый закадровый, R1)
Аудио #2: AC-3, 6 ch, 448 kbps (Английский)
Субтитры: Русские, Английские
x264 info: frame I:1233 Avg QP:16.03 size:108006
x264 info: frame P:37315 Avg QP:19.34 size: 37877
x264 info: frame B:149769 Avg QP:20.48 size: 14728
x264 info: consecutive B-frames: 1.4% 2.3% 3.5% 20.0% 8.2% 51.8% 3.3% 4.8% 1.0% 2.5% 0.4% 0.7% 0.3%

General
Unique ID : 24653085968868079097816239549152661943 (0x128C02FB6C1ABFDA7568947A1F2291B7)
Complete name : D:КИНОВраг у ворот.2001.BLU-RAY_720p.[-=DoMiNo=-].mkv
Format : Matroska
Format version : Version 4 / Version 2
File size : 4.35 GiB
Duration : 2 h 10 min
Overall bit rate : 4 762 kb/s
Movie name : Враг у ворот
Deion : 1942 год, разгар Сталинградской битвы. Немецкое командование направляет на передовую своего лучшего стрелка, майора Кенига, с особым заданием. Этот опытный и терпеливый профессионал — единственный, кто может попытаться справиться с русским «ангелом смерти» — неуловимым снайпером Василием Зайцевым. / / Зайцев — легенда и икона для защитников Сталинграда. Каждый день он выносит смертный приговор десяткам захватчиков, попавших в перекрестье его прицела. Между двумя уникальными снайперами начинается смертельная схватка, победителем из которой будет суждено выйти лишь одному…
Writing application : XviD4PSP 7.0.427 DAILY
Writing library : Lavf57.71.100
ErrorDetectionType : Per level 1
Attachments : poster.jpg
COMPOSER : Джеймс Хорнер
COUNTRY : Великобритания, Франция, Германия, Ирландия, США
DATE : 2001
DIRECTOR : Жан-Жак Анно
ENCODING_INFO : MATROSKA,WEBM > MKV 720p / VC1 > X264 VBR-2P 3862kbps Пользовательский / AC3 > COPY Безопасное / DTS-HD MA > AC3 CBR 448kbps
GENRE : драма, военный, история
HD_VIDEO : 1
IMDB_RATING : 7.60
ITUNEXTC : mpaa|R|400|
Language : und
MEDIA_TYPE : 9
ORIGINAL_TITLE : Enemy at the Gates
PRODUCER : Жан-Жак Анно, Джон Д. Шофилд, Ален Годар, Роланд Пеллегрино, Йорг Рейчл, Алиса Тэйджер
RATING : 7.010
WRITER : Жан-Жак Анно, Ален Годар

Video
ID : 1
Format : AVC
Format/Info : Advanced Video Codec
Format profile : High@L4.1
Format settings : CABAC / 9 Ref Frames
Format settings, CABAC : Yes
Format settings, ReFrames : 9 frames
Codec ID : V_MPEG4/ISO/AVC
Duration : 2 h 10 min
Bit rate : 3 862 kb/s
Width : 1 280 pixels
Height : 720 pixels
Display aspect ratio : 16:9
Frame rate mode : Constant
Frame rate : 23.976 (24000/1001) FPS
Color space : YUV
Chroma subsampling : 4:2:0
Bit depth : 8 bits
Scan type : Progressive
Bits/(Pixel*Frame) : 0.175
Stream size : 3.45 GiB (79%)
Title : BLU-RAY_720p_RIP_BY_-=DoMiNo=-
Writing library : x264 core 152 r2851M ba24899
Encoding settings : cabac=1 / ref=9 / deblock=1:-3:-3 / analyse=0x3:0x133 / me=umh / subme=11 / psy=1 / psy_rd=1.00:0.50 / mixed_ref=1 / me_range=48 / chroma_me=1 / trellis=2 / 8x8dct=1 / cqm=0 / deadzone=21,11 / fast_pskip=1 / chroma_qp_offset=-4 / threads=5 / lookahead_threads=1 / sliced_threads=0 / nr=0 / decimate=1 / interlaced=0 / bluray_compat=0 / constrained_intra=0 / bframes=12 / b_pyramid=2 / b_adapt=2 / b_bias=0 / direct=3 / weightb=1 / open_gop=0 / weightp=2 / keyint=240 / keyint_min=24 / scenecut=40 / intra_refresh=0 / rc_lookahead=60 / rc=2pass / mbtree=1 / bitrate=3862 / ratetol=1.0 / qcomp=0.60 / qpmin=0 / qpmax=69 / qpstep=4 / cplxblur=20.0 / qblur=0.5 / ip_ratio=1.40 / aq=1:1.00
Language : English
Default : Yes
Forced : No
Color range : Limited
Color primaries : BT.709
Transfer characteristics : BT.709
Matrix coefficients : BT.709

Audio #1
ID : 2
Format : AC-3
Format/Info : Audio Coding 3
Codec ID : A_AC3
Duration : 2 h 10 min
Bit rate mode : Constant
Bit rate : 448 kb/s
Channel(s) : 6 channels
Channel positions : Front: L C R, Side: L R, LFE
Sampling rate : 48.0 kHz
Frame rate : 31.250 FPS (1536 SPF)
Bit depth : 16 bits
Compression mode : Lossy
Stream size : 419 MiB (9%)
Title : AC3, 448 Кбит/сек, 6 каналов, 48.0 КГц - Многоголосый (R1)
Language : Russian
Service kind : Complete Main
Default : Yes
Forced : No

Audio #2
ID : 3
Format : AC-3
Format/Info : Audio Coding 3
Codec ID : A_AC3
Duration : 2 h 10 min
Bit rate mode : Constant
Bit rate : 448 kb/s
Channel(s) : 6 channels
Channel positions : Front: L C R, Side: L R, LFE
Sampling rate : 48.0 kHz
Frame rate : 31.250 FPS (1536 SPF)
Bit depth : 16 bits
Compression mode : Lossy
Stream size : 419 MiB (9%)
Title : AC3, 448 Кбит/сек, 6 каналов, 48.0 КГц - Оригинал
Language : English
Service kind : Complete Main
Default : No
Forced : No

Text #1
ID : 4
Format : UTF-8
Codec ID : S_TEXT/UTF8
Codec ID/Info : UTF-8 Plain Text
Duration : 2 h 2 min
Title : Full
Language : Russian
Default : Yes
Forced : No

Text #2
ID : 5
Format : UTF-8
Codec ID : S_TEXT/UTF8
Codec ID/Info : UTF-8 Plain Text
Duration : 2 h 2 min
Title : Full
Language : English
Default : No
Forced : No



Скачать Враг.у.ворот.Enemy.at.the.Gates.(Жан-Жак.Анно).[2001.триллер.драма.военный.история.HDDVDRip].[720p].[Open.Matte].[MVO]+[Eng]+[Sub.Rus.Eng]x2.torrent без регистрации
Золото ЗОЛОТАЯ РАЗДАЧА! СКАЧАННОЕ НЕ ЗАСЧИТЫВАЕТСЯ! Золото
Дата: Зарегистрирован   [ Тип: внутренний ] Как тут cкачать?
MAGNET ссылка
MAGNET ссылка


Скачать .torrent

12 KB

Статус: проверено DHT
Скачан: торрент - 18 раз, раздача полностью - 0 раз
Размер: 4,35 GB
Оценка:  - (Голосов: 0)
Поблагодарили: 0
Поделиться ссылкой на эту раздачу с друзьями:
В контактеFacebookОдноклассникиTwitterLivejournalМой МирLiveinternet
 

 
Показать сообщения:    


Вы не можете начинать темы
Вы не можете отвечать на сообщения
Вы не можете редактировать свои сообщения
Вы не можете удалять свои сообщения
Вы не можете голосовать в опросах
Вы не можете прикреплять файлы к сообщениям
Вы можете скачивать файлы